<?xml version="1.0" standalone="no"?>
<!DOCTYPE svg PUBLIC "-//W3C//DTD SVG 1.1//EN" "http://www.w3.org/Graphics/SVG/1.1/DTD/svg11.dtd">
<svg xmlns="http://www.w3.org/2000/svg">
<metadata>Copyright (C) 2021 by original authors @ fontello.com</metadata>
<defs>
<font id="entypo" horiz-adv-x="1000" >
<font-face font-family="entypo" font-weight="400" font-stretch="normal" units-per-em="1000" ascent="850" descent="-150" />
<missing-glyph horiz-adv-x="1000" />
<glyph glyph-name="address" unicode="&#xe800;" d="M426 800c13 0 20-7 20-20 0 0 0-860 0-860 0-13-7-20-20-20 0 0-46 0-46 0-13 0-20 7-20 20 0 0 0 440 0 440 0 0-176 0-176 0-11 0-20 2-28 6-8 1-17 5-26 12 0 0-120 82-120 82-7 4-10 9-10 16 0 7 3 12 10 16 0 0 120 82 120 82 9 7 18 11 26 12 5 3 15 4 28 4 0 0 176 0 176 0 0 0 0 190 0 190 0 13 7 20 20 20 0 0 46 0 46 0 0 0 0 0 0 0m564-208c7-4 10-9 10-16 0-7-3-12-10-16 0 0-118-82-118-82-15-8-23-12-26-12-9-4-19-6-28-6 0 0-302 0-302 0 0 0-40 230-40 230 0 0 342 0 342 0 12 0 21-1 28-4 7-3 15-7 26-12 0 0 118-82 118-82" horiz-adv-x="1000" />

<glyph glyph-name="adjust" unicode="&#xe801;" d="M950 390c13 0 25-4 35-12 10-8 15-17 15-28 0-27-17-40-50-40 0 0-48 0-48 0-33 0-50 13-50 40 0 11 5 20 15 28 10 8 22 12 35 12 0 0 48 0 48 0 0 0 0 0 0 0m-450 234c76 0 141-27 195-80 54-53 81-118 81-194 0-77-27-143-81-196-54-53-119-80-195-80-76 0-141 27-194 80-53 53-80 119-80 196 0 76 27 141 80 194 53 53 118 80 194 80 0 0 0 0 0 0m6-474c0 0 0 400 0 400-57 0-106-20-146-59-40-39-60-86-60-141 0-56 20-103 60-142 40-39 89-58 146-58 0 0 0 0 0 0m-356 200c0-27-17-40-50-40 0 0-50 0-50 0-33 0-50 13-50 40 0 11 5 20 15 28 10 8 22 12 35 12 0 0 50 0 50 0 13 0 25-4 35-12 10-8 15-17 15-28 0 0 0 0 0 0m350 350c-11 0-20 5-28 15-8 10-12 22-12 35 0 0 0 50 0 50 0 13 4 25 12 35 8 10 17 15 28 15 11 0 20-5 28-15 8-10 12-22 12-35 0 0 0-50 0-50 0-13-4-25-12-35-8-10-17-15-28-15 0 0 0 0 0 0m0-700c11 0 20-5 28-15 8-10 12-22 12-35 0 0 0-50 0-50 0-13-4-25-12-35-8-10-17-15-28-15-11 0-20 5-28 15-8 10-12 22-12 35 0 0 0 50 0 50 0 13 4 25 12 35 8 10 17 15 28 15 0 0 0 0 0 0m368 660c0 0-34-34-34-34-23-23-44-25-64-8-19 19-16 40 8 64 3 4 14 16 34 36 24 23 45 25 64 6 19-19 16-40-8-64 0 0 0 0 0 0m-700-588c9 11 20 17 33 18 13 1 22-2 29-10 8-8 11-18 10-31-1-13-7-24-16-33 0 0-36-36-36-36-9-9-20-15-33-16-13-1-22 2-29 10-20 19-18 40 6 64 4 3 16 14 36 34 0 0 0 0 0 0m20 646c0 0 36-36 36-36 24-24 26-45 6-64-7-7-16-9-29-8-13 1-24 7-33 16-20 20-32 31-36 34-9 9-15 20-16 33-1 13 2 23 10 31 7 8 16 11 29 10 13-1 24-7 33-16 0 0 0 0 0 0m590-702c-24 24-27 45-8 64 19 19 40 16 64-8 0 0 34-34 34-34 24-24 27-45 8-64-19-19-40-17-64 6-20 20-31 32-34 36 0 0 0 0 0 0" horiz-adv-x="1000" />

<glyph glyph-name="air" unicode="&#xe802;" d="M85 534c-11-9-23-13-36-12-14 1-25 7-34 18-10 9-14 21-12 36 1 15 7 27 18 36 32 27 58 47 79 60 20 13 50 27 89 40 38 13 81 15 129 4 47-11 100-33 159-66 58-33 110-51 155-53 44-2 78 3 100 16 22 13 51 35 89 67 25 20 48 18 70-6 21-27 19-51-6-72-82-73-160-110-234-110-67 0-141 23-222 70-46 25-85 43-119 52-34 9-65 9-93 0-28-9-50-19-65-29-16-10-38-27-67-51 0 0 0 0 0 0m736-110c25 21 48 19 70-6 21-27 19-51-6-72-27-23-49-40-65-53-17-13-41-25-72-38-32-13-64-19-97-19-64 0-138 23-222 70-46 25-85 43-119 52-34 9-65 9-93 0-28-9-50-19-65-29-16-10-38-27-67-51-10-9-21-13-35-12-14 1-26 7-35 18-22 27-20 51 6 72 25 23 45 39 60 50 14 11 37 23 69 38 31 15 60 22 88 23 27 1 62-4 105-15 42-11 87-29 134-56 45-25 85-43 119-52 34-9 65-9 93 0 28 9 49 19 65 29 15 10 37 27 67 51 0 0 0 0 0 0m0-256c25 21 48 19 70-6 9-9 13-21 12-36-2-15-8-27-18-36-27-23-49-40-65-53-17-13-41-25-72-38-32-13-64-19-97-19-64 0-138 23-222 70-46 25-85 43-119 52-34 9-65 10-93 1-28-9-50-18-66-29-16-11-38-28-66-52-10-9-21-13-35-12-14 1-26 7-35 18-22 27-20 51 6 72 25 23 45 39 60 50 14 11 37 23 69 38 31 15 60 22 88 23 27 1 62-4 105-15 42-11 87-29 134-56 45-25 85-43 119-52 34-9 65-9 93 0 28 9 49 19 65 29 15 10 37 27 67 51 0 0 0 0 0 0" horiz-adv-x="905" />

<glyph glyph-name="blogger" unicode="&#xe803;" d="M0 165l0 369q0 130 93 223t223 93l221 0q65-8 139-57t104-115q1-2 5-9t5-10 4-10 4-12 3-16 4-22 4-29q9-70 26-85 14-13 71-14t65-8l14-11 8-17 3-14-2-256q-1-130-93-223t-222-92l-363 0q-130 0-223 92t-93 223z m259 5q0-25 18-42t43-18l356 0q25 0 43 18t17 42-17 43-43 17l-356 0q-25 0-43-17t-18-43z m0 362q0-25 18-43t43-18l175 0q25 0 43 18t17 43-17 43-43 17l-175 0q-25 0-43-17t-18-43z" horiz-adv-x="996" />

<glyph glyph-name="archive" unicode="&#xe804;" d="M840 600c0 0 0-50 0-50 0 0-696 0-696 0 0 0 0 50 0 50 0 15 4 26 13 35 8 9 17 14 25 15 0 0 12 0 12 0 0 0 596 0 596 0 4 0 8 0 14-1 5-1 12-5 22-14 9-9 14-20 14-35 0 0 0 0 0 0m-148 150c4 0 8 0 14-1 5-1 12-5 22-14 9-9 14-20 14-35 0 0-498 0-498 0 0 15 4 26 13 35 8 9 17 14 25 15 0 0 12 0 12 0 0 0 398 0 398 0 0 0 0 0 0 0m248-200c22-21 35-37 38-46 4-12 4-30 0-54 0 0-76-450-76-450-3-15-10-26-20-35-11-9-20-14-28-15 0 0-14 0-14 0 0 0-696 0-696 0-35 0-55 17-60 50-4 17-17 92-39 223-22 131-35 207-39 227-7 15-8 29-3 44 4 15 8 23 10 26 2 3 9 9 21 20 0 0 10 10 10 10 0 0 30 30 30 30 0 0 0-80 0-80 0 0 836 0 836 0 0 0 0 80 0 80 0 0 30-30 30-30m-248-270c0 0 0 100 0 100 0 0-70 0-70 0 0 0 0-80 0-80 0 0-260 0-260 0 0 0 0 80 0 80 0 0-68 0-68 0 0 0 0-100 0-100 0-33 16-50 48-50 0 0 300 0 300 0 14 0 26 4 35 12 8 8 13 16 13 24 0 0 2 14 2 14" horiz-adv-x="981" />

<glyph glyph-name="arrow-combo" unicode="&#xe805;" d="M230 850c0 0 230-364 230-364 0 0-460 0-460 0 0 0 230 364 230 364m0-1000c0 0-230 366-230 366 0 0 460 0 460 0 0 0-230-366-230-366" horiz-adv-x="460" />

<glyph glyph-name="arrows-ccw" unicode="&#xe806;" d="M186 140c0 0 116 116 116 116 0 0 0-292 0-292 0 0-276 16-276 16 0 0 88 86 88 86-77 81-115 178-114 290 1 112 41 208 120 288 67 67 147 105 240 116 0 0 4-102 4-102-67-11-124-40-172-88-59-59-89-130-90-213-1-83 27-156 84-217 0 0 0 0 0 0m332 598c0 0 276-16 276-16 0 0-88-86-88-86 77-81 115-178 114-290-1-112-41-208-120-288-64-65-144-105-240-118 0 0-2 104-2 104 65 11 122 40 170 88 59 59 89 130 90 213 1 83-27 156-84 217 0 0-114-116-114-116 0 0-2 292-2 292" horiz-adv-x="820" />

<glyph glyph-name="attach" unicode="&#xe807;" d="M244-140c-68 0-125 24-170 72-48 47-73 102-74 166-1 64 27 127 84 190 0 0 496 496 496 496 53 53 111 71 174 54 29-8 56-24 79-47 23-23 39-50 47-79 17-64-1-123-54-176 0 0-474-474-474-474-27-27-56-42-88-46-32-3-59 7-80 28-20 16-29 41-27 74 2 33 18 64 47 92 0 0 332 334 332 334 16 17 33 17 50 0 17-17 17-34 0-50 0 0-332-332-332-332-29-29-36-53-20-70 8-5 16-7 24-6 16 3 31 11 46 26 0 0 474 474 474 474 33 33 45 69 34 108-11 40-36 65-76 76-36 9-72-3-108-36 0 0-494-494-494-494-44-51-65-98-64-143 1-45 19-84 52-117 33-32 72-49 117-50 45-1 92 19 141 62 0 0 496 494 496 494 16 16 33 16 50 0 17-15 17-31 0-48 0 0-496-496-496-496-55-55-117-82-186-82 0 0 0 0 0 0" horiz-adv-x="939" />

<glyph glyph-name="back-in-time" unicode="&#xe809;" d="M532 760c113 0 210-40 289-120 79-80 119-177 119-290 0-113-40-210-119-290-79-80-176-120-289-120-92 0-176 29-252 88 0 0 70 76 70 76 55-40 115-60 182-60 84 0 156 30 216 90 60 60 90 132 90 216 0 85-30 158-90 218-60 60-132 90-216 90-83 0-154-29-213-86-59-57-90-127-93-210 0 0 142 0 142 0 0 0-184-206-184-206 0 0-184 206-184 206 0 0 124 0 124 0 3 111 44 205 123 282 79 77 174 116 285 116 0 0 0 0 0 0m-36-190c0 0 70 0 70 0 0 0 0-204 0-204 0 0 130-130 130-130 0 0-50-50-50-50 0 0-150 150-150 150 0 0 0 234 0 234 0 0 0 0 0 0" horiz-adv-x="940" />

<glyph glyph-name="back" unicode="&#xe80a;" d="M750 540c27 0 50-10 70-29 20-19 30-43 30-71 0 0 0-290 0-290 0-27-10-50-30-70-20-20-43-30-70-30 0 0-690 0-690 0 0 0 0 140 0 140 0 0 650 0 650 0 0 0 0 210 0 210 0 0-500 0-500 0 0 0 0-110 0-110 0 0-210 180-210 180 0 0 210 180 210 180 0 0 0-110 0-110 0 0 540 0 540 0 0 0 0 0 0 0" horiz-adv-x="850" />

<glyph glyph-name="bag" unicode="&#xe80b;" d="M835 668c18-17 26-37 24-60 0 0-98-648-98-648-6-20-18-30-38-30 0 0-586 0-586 0-19 0-32 10-40 30-63 413-95 629-96 648-3 23 4 43 22 60 4 4 22 18 54 43 32 25 50 39 56 43 12 11 30 16 56 16 0 0 480 0 480 0 25 0 44-5 56-16 52-39 88-67 110-86 0 0 0 0 0 0m-406-436c37 0 70 11 98 34 28 23 49 52 63 89 14 37 24 66 30 89 6 23 10 45 13 66 0 0-92 0-92 0-26-125-63-188-112-188-50 0-87 63-112 188 0 0-92 0-92 0 30-185 98-278 204-278 0 0 0 0 0 0m-352 368c0 0 704 0 704 0 0 0-110 116-110 116 0 0-484 0-484 0 0 0-110-116-110-116" horiz-adv-x="859" />

<glyph glyph-name="basket" unicode="&#xe80c;" d="M150 0c0 27 10 50 30 70 20 20 43 30 70 30 28 0 52-10 71-30 19-20 29-43 29-70 0-28-10-52-29-71-19-19-43-29-71-29-27 0-50 10-70 29-20 19-30 43-30 71 0 0 0 0 0 0m500 0c0 27 10 50 30 70 20 20 43 30 70 30 28 0 52-10 71-30 19-20 29-43 29-70 0-28-10-52-29-71-19-19-43-29-71-29-27 0-50 10-70 29-20 19-30 43-30 71 0 0 0 0 0 0m-322 236c-24-7-35-14-34-23 1-9 16-13 44-13 0 0 562 0 562 0 0 0 0-76 0-76 0-13-7-20-20-20 0 0-130 0-130 0 0 0-500 0-500 0 0 0-24 0-24 0-13 0-20 7-20 20 0 0 0 76 0 76 0 0-10 46-10 46 0 0-98 454-98 454 0 0-98 0-98 0 0 0 0 80 0 80 0 13 7 20 20 20 0 0 156 0 156 0 13 0 20-7 20-20 0 0 0-86 0-86 0 0 704 0 704 0 0 0 0-274 0-274 0-15-6-23-18-26 0 0-554-158-554-158" horiz-adv-x="900" />

<glyph glyph-name="battery" unicode="&#xe80d;" d="M770 350c0-65 12-118 36-157 24-39 50-59 78-59 0 0 66 0 66 0-20-31-41-52-64-65-23-13-62-19-118-19 0 0-500 0-500 0-87 0-153 31-199 94-46 63-69 131-69 206 0 73 23 142 69 205 46 63 112 95 199 95 0 0 500 0 500 0 56 0 95-6 118-19 23-13 44-34 64-65 0 0-66 0-66 0-28 0-54-20-78-60-24-40-36-92-36-156 0 0 0 0 0 0m-136-90c7 8 4 17-8 26-91 89-150 144-178 164-11 7-19 11-26 13-7 2-13 0-18-5-5-5-9-9-10-12-1-3-4-9-8-18 0 0-22-56-22-56 0 0-148 66-148 66-17 8-29 8-34 0-5-9-3-19 8-28 91-88 151-142 180-162 23-11 37-14 42-11 5 3 11 14 18 31 0 0 24 58 24 58 0 0 146-68 146-68 17-8 29-7 34 2 0 0 0 0 0 0m310 192c15 0 28-9 39-27 11-18 17-42 17-71 0-29-6-53-17-72-11-19-24-28-39-28 0 0-38 0-38 0-15 0-27 9-38 28-11 19-16 43-16 72 0 29 5 53 16 71 11 18 23 27 38 27 0 0 38 0 38 0 0 0 0 0 0 0" horiz-adv-x="1000" />

<glyph glyph-name="behance" unicode="&#xe80e;" d="M404 386c37 0 66-13 85-40 19-27 30-53 31-80 0 0 0-40 0-40 0-37-7-69-20-96-13-27-30-46-50-58-20-12-40-21-59-27-19-6-36-10-49-11 0 0-20 0-20 0 0 0-322 0-322 0 0 0 0 646 0 646 0 0 322 0 322 0 52 0 94-15 127-44 33-29 49-72 49-128 0-33-8-60-23-81-15-21-31-33-47-37 0 0-24-4-24-4m-262 180c0 0 0-144 0-144 0 0 170 0 170 0 17 0 31 5 40 15 9 10 14 30 14 61 0 20-4 36-11 47-7 11-15 18-23 19 0 0-10 2-10 2 0 0-180 0-180 0 0 0 0 0 0 0m172-416c49 0 74 28 74 84 0 27-5 47-16 62-11 15-21 23-32 24 0 0-18 2-18 2 0 0-180 0-180 0 0 0 0-172 0-172 0 0 172 0 172 0 0 0 0 0 0 0m468 366c47 0 86-10 118-29 32-19 54-43 67-70 13-27 22-55 27-82 5-27 7-50 6-69 0 0-2-30-2-30 0 0-320 0-320 0 0-36 9-63 27-82 18-19 36-28 55-28 0 0 26-2 26-2 31 0 54 6 71 17 17 11 26 22 27 33 0 0 2 18 2 18 0 0 108 0 108 0 0-55-18-96-53-124-35-28-70-43-105-44 0 0-54-2-54-2-48 0-89 8-122 25-33 17-57 37-72 62-15 25-26 49-33 73-7 24-11 44-11 60 0 0 0 26 0 26 0 7 0 16 1 27 1 11 5 31 14 60 9 29 21 54 36 75 15 21 39 41 72 59 33 18 71 27 115 27 0 0 0 0 0 0m98-194c0 3 0 6-1 11-1 5-3 13-6 24-3 11-8 21-13 30-5 9-15 17-28 24-13 7-29 11-46 11-28 0-51-8-70-25-19-17-30-34-34-51 0 0-6-24-6-24 0 0 204 0 204 0 0 0 0 0 0 0m26 320c0 0 0-78 0-78 0 0-256 0-256 0 0 0 0 78 0 78 0 0 256 0 256 0 0 0 0 0 0 0" horiz-adv-x="1000" />

<glyph glyph-name="bell" unicode="&#xe80f;" d="M632 426c11-23 24-40 40-52 16-12 31-19 45-22 14-3 29-10 44-23 16-13 27-31 35-55 15-41-10-95-74-161-64-66-148-118-252-157-109-39-208-54-297-45-88 9-140 34-155 75-13 36-9 73 12 111 22 38 28 75 18 111-37 128-53 228-47 300 6 72 44 136 113 192 18 15 27 32 29 51 2 19 12 32 29 39 16 5 32 1 46-12 15-13 34-19 56-18 88 1 154-21 198-66 44-45 98-135 160-268 0 0 0 0 0 0m-186-404c59 21 112 50 159 85 48 35 81 66 100 91 20 25 28 42 25 50-5 15-21 26-49 33-27 7-68 8-124 1-55-7-117-23-187-48-68-25-125-54-173-87-47-33-78-61-94-84-15-23-21-41-17-53 3-8 20-15 50-22 31-7 76-8 134-4 59 4 118 17 176 38 0 0 0 0 0 0m-62 174c6 1 13 4 21 7 9 3 15 6 17 7 0 0 2-2 2-2 10-27 4-54-17-83-20-29-50-50-89-63-64-24-114-19-152 14 52 45 125 85 218 120 0 0 0 0 0 0" horiz-adv-x="800" />

<glyph glyph-name="block" unicode="&#xe810;" d="M480 830c133 0 247-47 340-140 93-93 140-207 140-340 0-132-47-245-140-339-93-94-207-141-340-141-132 0-245 47-339 141-94 94-141 207-141 339 0 133 47 247 141 340 94 93 207 140 339 140 0 0 0 0 0 0m258-220c0 0 0 0 0 0m-622-260c0-88 27-165 82-230 0 0 514 514 514 514-67 55-144 82-232 82-101 0-187-36-258-107-71-71-106-158-106-259 0 0 0 0 0 0m106-258c0 0 0 0 0 0m258-106c101 0 188 36 259 107 71 71 107 157 107 257 0 87-27 164-82 232 0 0-514-514-514-514 65-55 142-82 230-82 0 0 0 0 0 0" horiz-adv-x="960" />

<glyph glyph-name="book-open" unicode="&#xe811;" d="M340 238c0 0 0-68 0-68 0 0-200 80-200 80 0 0 0 68 0 68 0 0 200-80 200-80m0 208c0 0 0-68 0-68 0 0-200 80-200 80 0 0 0 68 0 68 0 0 200-80 200-80m538 346c15-8 22-22 22-42 0 0 0-640 0-640 0-23-11-38-32-46 0 0-398-160-398-160-5-1-9-2-10-2-1 0-3 0-5-1-2-1-4-1-5-1-1 0-3 0-5 1-2 1-4 1-5 1 0 0-10 2-10 2 0 0-398 160-398 160-21 8-32 23-32 46 0 0 0 640 0 640 0 20 7 34 22 42 15 11 30 13 46 6 0 0 382-154 382-154 0 0 382 154 382 154 16 7 31 5 46-6 0 0 0 0 0 0m-478-788c0 0 0 560 0 560 0 0-320 128-320 128 0 0 0-560 0-560 0 0 320-128 320-128m420 128c0 0 0 560 0 560 0 0-320-128-320-128 0 0 0-560 0-560 0 0 320 128 320 128m-60 186c0 0 0-68 0-68 0 0-200-80-200-80 0 0 0 68 0 68 0 0 200 80 200 80m0 208c0 0 0-68 0-68 0 0-200-80-200-80 0 0 0 68 0 68 0 0 200 80 200 80" horiz-adv-x="900" />

<glyph glyph-name="book" unicode="&#xe812;" d="M682 594c12-5 18-15 18-28 0 0 0-562 0-562 0-9-4-18-12-25-8-7-17-11-28-11-31 0-46 12-46 36 0 0 0 522 0 522 0 8-4 14-12 18 0 0-404 216-404 216-21 7-44 3-68-10-29-13-48-28-56-44 0 0 408-228 408-228 12-5 18-15 18-28 0 0 0-550 0-550 0-15-6-24-18-28-4-3-9-4-16-4-9 0-16 1-20 4-5 4-73 46-202 127-129 81-200 124-212 131-17 12-26 23-26 34 0 0-6 524-6 524 0 19 5 36 14 52 19 31 53 56 102 77 49 21 88 24 116 9 0 0 450-232 450-232" horiz-adv-x="700" />

<glyph glyph-name="bookmark" unicode="&#xe813;" d="M310 800c15 0 27-5 36-15 9-10 14-22 14-35 0 0 0-850 0-850 0 0-180 180-180 180 0 0-180-180-180-180 0 0 0 850 0 850 0 33 13 50 40 50 0 0 270 0 270 0 0 0 0 0 0 0" horiz-adv-x="360" />

<glyph glyph-name="bookmarks" unicode="&#xe814;" d="M500 850c13 0 25-5 35-15 10-10 15-22 15-35 0 0 0-850 0-850 0 0-150 180-150 180 0 0 0 620 0 620 0 13-5 25-15 35-10 10-22 15-35 15 0 0-100 0-100 0 0 33 13 50 40 50 0 0 210 0 210 0 0 0 0 0 0 0m-250-150c13 0 25-5 35-15 10-10 15-22 15-35 0 0 0-800 0-800 0 0-150 180-150 180 0 0-150-180-150-180 0 0 0 800 0 800 0 33 13 50 40 50 0 0 210 0 210 0 0 0 0 0 0 0" horiz-adv-x="550" />

<glyph glyph-name="box" unicode="&#xe815;" d="M870 750c8 0 15-3 21-9 6-6 9-13 9-21 0 0 0-120 0-120 0 0-900 0-900 0 0 0 0 120 0 120 0 8 3 15 9 21 6 6 13 9 21 9 0 0 840 0 840 0 0 0 0 0 0 0m-820-730c0 0 0 530 0 530 0 0 800 0 800 0 0 0 0-530 0-530 0-20-7-37-21-50-14-13-30-20-49-20 0 0-660 0-660 0-19 0-35 7-49 20-14 13-21 30-21 50 0 0 0 0 0 0m250 430c0 0 0-100 0-100 0 0 300 0 300 0 0 0 0 100 0 100 0 0-300 0-300 0 0 0 0 0 0 0" horiz-adv-x="900" />

<glyph glyph-name="briefcase" unicode="&#xe816;" d="M456 326c0 0 0-100 0-100 0 0-456 0-456 0 5 151 9 248 10 292 3 72 36 108 100 108 0 0 160 0 160 0 11 17 23 40 37 67 14 27 22 42 23 45 9 17 17 28 23 32 6 4 18 6 37 6 0 0 222 0 222 0 17 0 29-2 36-7 7-5 14-15 22-31 12-21 32-59 60-112 0 0 160 0 160 0 64 0 97-36 100-108 0 0 10-292 10-292 0 0-454 0-454 0 0 0 0 100 0 100 0 0-90 0-90 0 0 0 0 0 0 0m-74 354c0 0-28-54-28-54 0 0 292 0 292 0 0 0-28 54-28 54-9 17-23 26-42 26 0 0-152 0-152 0-19 0-33-9-42-26 0 0 0 0 0 0m164-604c0 0 0 100 0 100 0 0 430 0 430 0-4-59-7-114-10-166-4-56-34-84-90-84 0 0-750 0-750 0-60 0-90 28-90 84 0 0-10 166-10 166 0 0 430 0 430 0 0 0 0-100 0-100 0 0 90 0 90 0 0 0 0 0 0 0" horiz-adv-x="1000" />

<glyph glyph-name="brush" unicode="&#xe817;" d="M118 170c25 23 54 32 85 29 31-3 60-18 87-45 28-27 44-56 48-87 4-31-6-59-30-83-57-56-133-90-228-102-56-8-83-3-80 14 0 3 2 6 6 10 35 40 56 88 64 145 8 57 24 96 48 119 0 0 0 0 0 0m840 646c17-17-32-100-148-248-116-148-213-261-292-338-25-25-67-60-124-104-5-4-11-1-16 8-12 23-28 44-48 64-21 21-43 37-66 48-11 4-13 9-8 16 43 56 77 97 104 122 79 77 193 173 344 287 151 114 235 162 254 145 0 0 0 0 0 0" horiz-adv-x="961" />

<glyph glyph-name="bucket" unicode="&#xe818;" d="M522 780c116 0 211-16 286-49 75-33 109-68 104-105-4-25-20-128-48-307-28-179-43-273-44-281-1-12-14-27-37-44-23-17-59-34-107-50-48-16-99-24-154-24-55 0-106 8-153 24-47 16-83 33-106 50-23 17-36 32-37 44 0 1-1 11-4 30 55-4 109 8 163 35 54 27 100 66 139 117 19 0 35 7 48 20 13 13 20 30 20 50 0 19-7 35-20 49-13 14-30 21-50 21-19 0-35-7-49-21-14-14-21-30-21-49 0-13 3-25 10-36-32-39-70-68-115-89-45-21-88-30-131-27-68 7-120 26-157 57-37 31-56 68-59 109-5 81 47 143 156 184-12 63-19 109-22 138-5 37 29 72 104 105 75 33 169 49 284 49 0 0 0 0 0 0m-452-470c3-21 15-41 37-59 22-18 52-31 91-39 0 0-32 204-32 204-67-29-99-65-96-106 0 0 0 0 0 0m452 212c55 0 107 6 157 18 50 12 88 25 113 39 25 14 38 26 38 35 0 9-13 21-38 35-25 14-63 27-112 39-49 12-102 18-158 18-55 0-107-6-156-18-49-12-87-25-112-39-25-14-38-26-38-35 0-9 13-21 38-35 25-14 63-27 112-39 49-12 101-18 156-18 0 0 0 0 0 0" horiz-adv-x="913" />

<glyph glyph-name="calendar" unicode="&#xe819;" d="M800 700c28 0 52-10 71-29 19-19 29-43 29-71 0 0 0-600 0-600 0-27-10-50-29-70-19-20-43-30-71-30 0 0-700 0-700 0-27 0-50 10-70 30-20 20-30 43-30 70 0 0 0 600 0 600 0 28 10 52 30 71 20 19 43 29 70 29 0 0 46 0 46 0 0 0 0-100 0-100 0 0 160 0 160 0 0 0 0 100 0 100 0 0 290 0 290 0 0 0 0-100 0-100 0 0 160 0 160 0 0 0 0 100 0 100 0 0 44 0 44 0 0 0 0 0 0 0m0-700c0 0 0 400 0 400 0 0-700 0-700 0 0 0 0-400 0-400 0 0 700 0 700 0 0 0 0 0 0 0m-540 800c0 0 0-170 0-170 0 0-70 0-70 0 0 0 0 170 0 170 0 0 70 0 70 0 0 0 0 0 0 0m450 0c0 0 0-170 0-170 0 0-70 0-70 0 0 0 0 170 0 170 0 0 70 0 70 0 0 0 0 0 0 0" horiz-adv-x="900" />

<glyph glyph-name="camera" unicode="&#xe81a;" d="M500 450c43 0 78-15 107-44 29-29 43-65 43-106 0-41-15-77-44-106-29-29-65-44-106-44-41 0-77 15-106 44-29 29-44 65-44 106 0 41 15 77 44 106 29 29 65 44 106 44 0 0 0 0 0 0m400 150c28 0 52-10 71-29 19-19 29-43 29-71 0 0 0-450 0-450 0-27-10-50-29-70-19-20-43-30-71-30 0 0-800 0-800 0-27 0-50 10-70 30-20 20-30 43-30 70 0 0 0 450 0 450 0 28 10 52 30 71 20 19 43 29 70 29 0 0 120 0 120 0 19 0 32 10 40 30 0 0 30 92 30 92 7 19 20 28 40 28 0 0 340 0 340 0 20 0 33-9 40-28 0 0 30-92 30-92 8-20 21-30 40-30 0 0 120 0 120 0 0 0 0 0 0 0m-400-550c69 0 128 24 177 73 49 49 73 108 73 177 0 69-24 128-73 177-49 49-108 73-177 73-69 0-128-24-177-73-49-49-73-108-73-177 0-69 24-128 73-177 49-49 108-73 177-73 0 0 0 0 0 0m366 380c9 0 17 4 24 11 7 7 10 16 10 25 0 9-3 17-10 24-7 7-15 10-24 10-24 0-36-11-36-34 0-11 4-19 11-26 7-7 16-10 25-10 0 0 0 0 0 0" horiz-adv-x="1000" />

<glyph glyph-name="cancel-circled" unicode="&#xe81b;" d="M420 770c116 0 215-41 297-123 82-82 123-181 123-297 0-116-41-215-123-297-82-82-181-123-297-123-116 0-215 41-297 123-82 82-123 181-123 297 0 116 41 215 123 297 82 82 181 123 297 123 0 0 0 0 0 0m86-420c0 0 154 154 154 154 0 0-86 86-86 86 0 0-154-152-154-152 0 0-152 152-152 152 0 0-88-86-88-86 0 0 154-154 154-154 0 0-154-152-154-152 0 0 88-86 88-86 0 0 152 152 152 152 0 0 154-152 154-152 0 0 86 86 86 86 0 0-154 152-154 152" horiz-adv-x="840" />

<glyph glyph-name="cancel-squared" unicode="&#xe81c;" d="M700 750c28 0 52-10 71-29 19-19 29-43 29-71 0 0 0-600 0-600 0-27-10-50-29-70-19-20-43-30-71-30 0 0-600 0-600 0-27 0-50 10-70 30-20 20-30 43-30 70 0 0 0 600 0 600 0 28 10 52 30 71 20 19 43 29 70 29 0 0 600 0 600 0 0 0 0 0 0 0m-146-638c0 0 86 86 86 86 0 0-154 152-154 152 0 0 154 154 154 154 0 0-86 86-86 86 0 0-154-152-154-152 0 0-152 152-152 152 0 0-88-86-88-86 0 0 154-154 154-154 0 0-154-152-154-152 0 0 88-86 88-86 0 0 152 152 152 152 0 0 154-152 154-152" horiz-adv-x="800" />

<glyph glyph-name="cancel" unicode="&#xe81d;" d="M452 194c12-12 18-26 18-43 0-17-6-31-18-43-12-11-26-16-43-16-17 0-31 5-43 16 0 0-132 152-132 152 0 0-132-152-132-152-12-11-26-16-43-16-17 0-31 5-43 16-11 12-16 26-16 43 0 17 5 31 16 43 0 0 138 156 138 156 0 0-138 158-138 158-11 12-16 26-16 43 0 17 5 31 16 43 12 11 26 16 43 16 17 0 31-5 43-16 0 0 132-152 132-152 0 0 132 152 132 152 12 11 26 16 43 16 17 0 31-5 43-16 12-12 18-26 18-43 0-17-6-31-18-43 0 0-138-158-138-158 0 0 138-156 138-156" horiz-adv-x="470" />

<glyph glyph-name="cc-by" unicode="&#xe81e;" d="M480 526c-44 0-66 23-66 68 0 45 22 68 66 68 45 0 68-23 68-68 0-45-23-68-68-68 0 0 0 0 0 0m98-26c9 0 17-3 22-8 7-7 10-14 10-22 0 0 0-196 0-196 0 0-56 0-56 0 0 0 0-234 0-234 0 0-148 0-148 0 0 0 0 234 0 234 0 0-56 0-56 0 0 0 0 196 0 196 0 8 3 15 10 22 5 5 13 8 22 8 0 0 196 0 196 0 0 0 0 0 0 0m-98 330c133 0 247-47 340-140 93-93 140-207 140-340 0-132-47-245-140-339-93-94-207-141-340-141-132 0-245 47-339 141-94 94-141 207-141 339 0 133 47 247 141 340 94 93 207 140 339 140 0 0 0 0 0 0m0-872c108 0 200 38 277 115 77 77 115 169 115 277 0 109-38 202-115 278-77 76-169 114-277 114-108 0-200-38-277-114-77-76-115-169-115-278 0-108 38-200 115-277 77-77 169-115 277-115 0 0 0 0 0 0" horiz-adv-x="960" />

<glyph glyph-name="cc-nc-eu" unicode="&#xe81f;" d="M480 830c133 0 247-47 340-140 93-93 140-207 140-340 0-132-47-245-140-339-93-94-207-141-340-141-132 0-245 47-339 141-94 94-141 207-141 339 0 133 47 247 141 340 94 93 207 140 339 140 0 0 0 0 0 0m-370-352c-15-41-22-84-22-128 0-108 38-200 115-277 77-77 169-115 277-115 73 0 140 18 201 55 61 37 108 86 143 149 0 0-246 108-246 108 0 0-174 0-174 0 7-24 15-43 26-56 25-27 60-40 104-40 31 0 61 7 92 20 0 0 18-90 18-90-37-20-79-30-124-30-85 0-151 31-196 92-23 29-38 64-46 104 0 0-52 0-52 0 0 0 0 58 0 58 0 0 44 0 44 0 0 0 0 14 0 14 0 3 0 7 1 12 1 5 1 9 1 12 0 0-46 0-46 0 0 0 0 56 0 56 0 0 10 0 10 0 0 0-126 56-126 56m488-112c0 0 262-116 262-116 8 32 12 65 12 100 0 109-38 202-115 278-77 76-169 114-277 114-68 0-131-16-189-48-58-32-105-75-141-130 0 0 158-70 158-70 5 9 15 22 28 38 48 55 109 82 184 82 47 0 87-8 122-24 0 0-24-92-24-92-27 13-56 20-88 20-43 0-76-15-100-44-7-7-12-16-16-28 0 0 56-24 56-24 0 0 136 0 136 0 0 0 0-56 0-56 0 0-8 0-8 0 0 0 0 0 0 0" horiz-adv-x="960" />

<glyph glyph-name="cc-nc-jp" unicode="&#xe820;" d="M480 830c133 0 247-47 340-140 93-93 140-207 140-340 0-132-47-245-140-339-93-94-207-141-340-141-132 0-245 47-339 141-94 94-141 207-141 339 0 133 47 247 141 340 94 93 207 140 339 140 0 0 0 0 0 0m-374-364c-12-36-18-75-18-116 0-108 38-200 115-277 77-77 169-115 277-115 71 0 136 17 195 52 59 35 106 81 141 140 0 0-152 68-152 68 0 0 0-68 0-68 0 0-126 0-126 0 0 0 0-108 0-108 0 0-118 0-118 0 0 0 0 108 0 108 0 0-124 0-124 0 0 0 0 74 0 74 0 0 124 0 124 0 0 0 0 36 0 36 0 0-12 24-12 24 0 0-112 0-112 0 0 0 0 74 0 74 0 0 54 0 54 0 0 0-244 108-244 108m432-242c0 0 112 0 112 0 0 0-106 48-106 48 0 0-6-12-6-12 0 0 0-36 0-36 0 0 0 0 0 0m126 100c0 0 192-86 192-86 11 39 16 76 16 112 0 109-38 202-115 278-77 76-169 114-277 114-71 0-135-17-194-51-59-34-105-80-140-137 0 0 158-70 158-70 0 0-54 98-54 98 0 0 128 0 128 0 0 0 76-166 76-166 0 0 46-20 46-20 0 0 82 186 82 186 0 0 128 0 128 0 0 0-122-224-122-224 0 0 76 0 76 0 0 0 0-34 0-34 0 0 0 0 0 0" horiz-adv-x="960" />

<glyph glyph-name="cc-nc" unicode="&#xe821;" d="M480 830c133 0 247-47 340-140 93-93 140-207 140-340 0-132-47-245-140-339-93-94-207-141-340-141-132 0-245 47-339 141-94 94-141 207-141 339 0 133 47 247 141 340 94 93 207 140 339 140 0 0 0 0 0 0m-370-350c-15-41-22-85-22-130 0-108 38-200 115-277 77-77 169-115 277-115 73 0 141 19 202 56 61 37 109 87 142 148 0 0-178 80-178 80-5-31-21-55-46-74-25-20-54-31-86-34 0 0 0-74 0-74 0 0-56 0-56 0 0 0 0 74 0 74-52 0-101 19-146 58 0 0 66 66 66 66 33-29 69-44 108-44 16 0 30 4 42 12 12 8 18 20 18 36 0 12-5 22-14 30 0 0-46 20-46 20 0 0-56 26-56 26 0 0-76 32-76 32 0 0-244 110-244 110m506-122c0 0 242-108 242-108 9 29 14 63 14 100 0 109-38 202-115 278-77 76-169 114-277 114-68 0-131-16-188-48-57-32-104-75-140-130 0 0 182-82 182-82 8 24 23 45 46 62 21 15 47 23 78 24 0 0 0 74 0 74 0 0 56 0 56 0 0 0 0-74 0-74 45-3 85-17 120-44 0 0-62-64-62-64-29 19-57 28-84 28-16 0-29-3-38-8-12-7-18-17-18-30 0-5 1-9 4-12 0 0 60-28 60-28 0 0 42-18 42-18 0 0 78-34 78-34" horiz-adv-x="960" />

<glyph glyph-name="cc-nd" unicode="&#xe822;" d="M306 382c0 0 0 82 0 82 0 0 348 0 348 0 0 0 0-82 0-82 0 0-348 0-348 0 0 0 0 0 0 0m0-154c0 0 0 82 0 82 0 0 348 0 348 0 0 0 0-82 0-82 0 0-348 0-348 0 0 0 0 0 0 0m174 602c133 0 247-47 340-140 93-93 140-207 140-340 0-132-47-245-140-339-93-94-207-141-340-141-132 0-245 47-339 141-94 94-141 207-141 339 0 133 47 247 141 340 94 93 207 140 339 140 0 0 0 0 0 0m0-872c108 0 200 38 277 115 77 77 115 169 115 277 0 109-38 202-115 278-77 76-169 114-277 114-108 0-200-38-277-114-77-76-115-169-115-278 0-108 38-200 115-277 77-77 169-115 277-115 0 0 0 0 0 0" horiz-adv-x="960" />

<glyph glyph-name="cc-pd" unicode="&#xe823;" d="M480 830c133 0 247-47 340-140 93-93 140-207 140-340 0-132-47-245-140-339-93-94-207-141-340-141-132 0-245 47-339 141-94 94-141 207-141 339 0 133 47 247 141 340 94 93 207 140 339 140 0 0 0 0 0 0m-370-352c-15-41-22-84-22-128 0-108 38-200 115-277 77-77 169-115 277-115 73 0 140 18 201 55 61 37 108 86 143 149 0 0-424 188-424 188 1-36 11-68 28-96 17-28 43-42 76-42 24 0 45 9 64 26 0 0 6 6 6 6 0 0 70-84 70-84-3-1-6-4-10-7-4-3-7-6-8-9-41-28-87-42-136-42-57 0-110 19-159 58-49 39-73 101-73 188 0 21 2 42 6 62 0 0-154 68-154 68m310-34c0 0 440-194 440-194 8 32 12 65 12 100 0 109-38 202-115 278-77 76-169 114-277 114-68 0-131-16-189-48-58-32-105-75-141-130 0 0 148-66 148-66 43 68 108 102 196 102 59 0 109-18 150-54 0 0-78-80-78-80-5 5-10 9-14 12-15 11-32 16-52 16-35 0-61-17-80-50 0 0 0 0 0 0" horiz-adv-x="960" />

<glyph glyph-name="cc-remix" unicode="&#xe824;" d="M794 342c0 0 10-4 10-4 0 0 0-136 0-136 0 0-10-4-10-4 0 0-116-50-116-50 0 0-4-2-4-2 0 0-6 2-6 2 0 0-252 104-252 104 0 0-8 4-8 4 0 0-124-52-124-52 0 0-124 54-124 54 0 0 0 122 0 122 0 0 116 48 116 48 0 0-2 2-2 2 0 0 0 136 0 136 0 0 130 56 130 56 0 0 294-122 294-122 0 0 0-118 0-118 0 0 96-40 96-40m-136-158c0 0 0 86 0 86 0 0-2 0-2 0 0 0 0 2 0 2 0 0-220 90-220 90 0 0 0-86 0-86 0 0 220-92 220-92 0 0 0 2 0 2 0 0 2-2 2-2m14 112c0 0 78 32 78 32 0 0-72 30-72 30 0 0-76-32-76-32 0 0 70-30 70-30m102-74c0 0 0 84 0 84 0 0-86-36-86-36 0 0 0-84 0-84 0 0 86 36 86 36m-294 608c133 0 247-47 340-140 93-93 140-207 140-340 0-132-47-245-140-339-93-94-207-141-340-141-132 0-245 47-339 141-94 94-141 207-141 339 0 133 47 247 141 340 94 93 207 140 339 140 0 0 0 0 0 0m0-872c108 0 200 38 277 115 77 77 115 169 115 277 0 109-38 202-115 278-77 76-169 114-277 114-108 0-200-38-277-114-77-76-115-169-115-278 0-108 38-200 115-277 77-77 169-115 277-115 0 0 0 0 0 0" horiz-adv-x="960" />

<glyph glyph-name="cc-sa" unicode="&#xe825;" d="M478 604c76 0 136-25 180-74 44-48 66-110 66-186 0-73-23-135-68-184-49-49-109-74-180-74-53 0-101 17-142 50-39 32-62 78-70 138 0 0 120 0 120 0 4-57 39-86 106-86 33 0 61 14 82 42 20 29 30 69 30 118 0 51-9 89-28 116-20 27-47 40-82 40-64 0-100-29-108-86 0 0 36 0 36 0 0 0-96-94-96-94 0 0-94 94-94 94 0 0 36 0 36 0 9 60 33 106 72 138 39 32 85 48 140 48 0 0 0 0 0 0m2 226c133 0 247-47 340-140 93-93 140-207 140-340 0-132-47-245-140-339-93-94-207-141-340-141-132 0-245 47-339 141-94 94-141 207-141 339 0 133 47 247 141 340 94 93 207 140 339 140 0 0 0 0 0 0m0-872c108 0 200 38 277 115 77 77 115 169 115 277 0 109-38 202-115 278-77 76-169 114-277 114-108 0-200-38-277-114-77-76-115-169-115-278 0-108 38-200 115-277 77-77 169-115 277-115 0 0 0 0 0 0" horiz-adv-x="960" />

<glyph glyph-name="cc-share" unicode="&#xe826;" d="M676 488c8 0 15-3 20-8 5-5 8-11 8-18 0 0 0-354 0-354 0-7-3-13-8-18-5-5-12-8-20-8 0 0-260 0-260 0-8 0-15 3-20 8-5 5-8 11-8 18 0 0 0 104 0 104 0 0-104 0-104 0-7 0-13 3-18 8-5 5-8 12-8 20 0 0 0 352 0 352 0 8 2 14 6 18 3 4 9 7 18 10 0 0 264 0 264 0 7 0 13-3 18-8 5-5 8-12 8-20 0 0 0-104 0-104 0 0 104 0 104 0 0 0 0 0 0 0m-264 0c0 0 108 0 108 0 0 0 0 78 0 78 0 0-210 0-210 0 0 0 0-300 0-300 0 0 78 0 78 0 0 0 0 196 0 196 0 7 3 13 8 18 3 3 8 5 16 8 0 0 0 0 0 0m238-354c0 0 0 302 0 302 0 0-210 0-210 0 0 0 0-302 0-302 0 0 210 0 210 0 0 0 0 0 0 0m-170 696c133 0 247-47 340-140 93-93 140-207 140-340 0-132-47-245-140-339-93-94-207-141-340-141-132 0-245 47-339 141-94 94-141 207-141 339 0 133 47 247 141 340 94 93 207 140 339 140 0 0 0 0 0 0m0-872c108 0 200 38 277 115 77 77 115 169 115 277 0 109-38 202-115 278-77 76-169 114-277 114-108 0-200-38-277-114-77-76-115-169-115-278 0-108 38-200 115-277 77-77 169-115 277-115 0 0 0 0 0 0" horiz-adv-x="960" />

<glyph glyph-name="cc-zero" unicode="&#xe827;" d="M480 628c72 0 123-27 153-81 30-54 45-120 45-197 0-76-15-141-45-195-30-54-81-81-153-81-72 0-123 27-153 81-30 54-45 119-45 195 0 77 15 143 45 197 30 54 81 81 153 81 0 0 0 0 0 0m-86-278c0-12 1-34 4-66 0 0 106 194 106 194 9 16 7 30-6 42-8 3-14 4-18 4-57 0-86-58-86-174 0 0 0 0 0 0m86-172c57 0 86 57 86 172 0 27-2 55-6 84 0 0-118-204-118-204-15-20-11-35 12-46 1-1 3-2 6-2 1 0 2-1 2-2 1 0 4 0 8-1 4-1 7-1 10-1 0 0 0 0 0 0m0 652c133 0 247-47 340-140 93-93 140-207 140-340 0-132-47-245-140-339-93-94-207-141-340-141-132 0-245 47-339 141-94 94-141 207-141 339 0 133 47 247 141 340 94 93 207 140 339 140 0 0 0 0 0 0m0-872c108 0 200 38 277 115 77 77 115 169 115 277 0 109-38 202-115 278-77 76-169 114-277 114-108 0-200-38-277-114-77-76-115-169-115-278 0-108 38-200 115-277 77-77 169-115 277-115 0 0 0 0 0 0" horiz-adv-x="960" />

<glyph glyph-name="cc" unicode="&#xe828;" d="M474 830c132 1 245-44 340-136 95-92 143-204 146-336 1-133-44-247-136-342-92-95-205-143-338-146-132-1-246 44-341 137-95 93-144 205-145 337-3 133 42 247 135 342 93 95 206 143 339 144 0 0 0 0 0 0m12-858c104 1 193 39 266 114 73 75 109 165 108 270-1 105-40 194-115 267-75 73-165 108-269 107-105-1-194-39-267-114-73-75-108-165-107-270 1-105 39-194 114-267 75-73 165-108 270-107 0 0 0 0 0 0m-124 298c27 0 46 13 58 40 0 0 56-30 56-30-13-24-30-41-50-52-21-13-45-20-70-20-41 0-75 13-100 38-25 24-38 59-38 104 0 45 13 81 38 106 25 25 57 38 96 38 57 0 99-22 124-66 0 0-62-32-62-32-7 13-15 23-24 28-9 5-19 8-28 8-40 0-60-27-60-82 0-25 5-45 14-58 12-15 27-22 46-22 0 0 0 0 0 0m266 0c28 0 47 13 56 40 0 0 58-30 58-30-12-21-29-39-50-52-21-13-45-20-70-20-43 0-76 13-100 38-25 24-38 59-38 104 0 43 13 78 38 106 25 25 58 38 98 38 56 0 96-22 120-66 0 0-60-32-60-32-7 13-15 23-24 28-9 5-19 8-28 8-41 0-62-27-62-82 0-24 5-43 16-58 11-15 26-22 46-22 0 0 0 0 0 0" horiz-adv-x="960" />

<glyph glyph-name="ccw" unicode="&#xe829;" d="M532 736c113 0 210-40 289-120 79-80 119-177 119-290 0-113-40-210-119-290-79-80-176-120-289-120-95 0-179 29-252 88 0 0 70 74 70 74 56-40 117-60 182-60 84 0 156 30 216 90 60 60 90 133 90 218 0 85-30 158-90 218-60 60-132 90-216 90-83 0-154-29-214-87-60-58-91-128-92-211 0 0 142 0 142 0 0 0-184-204-184-204 0 0-184 204-184 204 0 0 124 0 124 0 1 111 42 205 122 283 80 78 175 117 286 117 0 0 0 0 0 0" horiz-adv-x="940" />

<glyph glyph-name="cd" unicode="&#xe82a;" d="M460 810c127 0 235-45 325-135 90-90 135-198 135-325 0-127-45-235-135-325-90-90-198-135-325-135-127 0-235 45-325 135-90 90-135 198-135 325 0 127 45 235 135 325 90 90 198 135 325 135 0 0 0 0 0 0m0-610c41 0 77 15 106 44 29 29 44 65 44 106 0 43-14 78-43 107-29 29-64 43-107 43-41 0-77-15-106-44-29-29-44-65-44-106 0-41 15-77 44-106 29-29 65-44 106-44 0 0 0 0 0 0" horiz-adv-x="920" />

<glyph glyph-name="chart-area" unicode="&#xe82b;" d="M964 732c11 15 16 13 16-4 0 0 0-768 0-768 0 0-964 0-964 0-8 0-13 2-15 7-2 5 0 10 5 17 0 0 230 288 230 288 13 15 27 15 40 2 0 0 74-66 74-66 7-5 14-8 21-7 7 1 13 4 17 11 0 0 158 238 158 238 11 17 23 19 38 4 0 0 112-104 112-104 13-13 26-12 38 4 0 0 230 378 230 378" horiz-adv-x="980" />

<glyph glyph-name="chart-bar" unicode="&#xe82c;" d="M750 800c15 0 27-5 36-15 9-10 14-22 14-35 0 0 0-850 0-850 0 0-200 0-200 0 0 0 0 850 0 850 0 33 13 50 40 50 0 0 110 0 110 0 0 0 0 0 0 0m-300-300c15 0 27-5 36-15 9-10 14-22 14-35 0 0 0-550 0-550 0 0-200 0-200 0 0 0 0 550 0 550 0 33 13 50 40 50 0 0 110 0 110 0 0 0 0 0 0 0m-300-300c15 0 27-5 36-15 9-10 14-22 14-35 0 0 0-250 0-250 0 0-200 0-200 0 0 0 0 250 0 250 0 33 13 50 40 50 0 0 110 0 110 0 0 0 0 0 0 0" horiz-adv-x="800" />

<glyph glyph-name="chart-line" unicode="&#xe82d;" d="M34 284c-28 7-39 25-32 56 6 28 24 39 54 32 0 0 98-24 98-24 0 0-52-80-52-80 0 0-68 16-68 16m890-12c9 8 20 12 33 11 12-1 23-6 31-15 21-21 20-43-2-64 0 0-252-226-252-226-8-8-18-12-30-12-10 0-19 3-28 10 0 0-286 220-286 220 0 0-54 14-54 14 0 0 50 80 50 80 0 0 36-8 36-8 8-3 13-5 16-8 0 0 264-204 264-204 0 0 222 202 222 202m-490 220c0 0-350-550-350-550-8-15-21-22-38-22-8 0-16 3-24 8-11 7-18 16-20 29-3 13-1 24 6 33 0 0 374 588 374 588 5 11 14 17 28 20 12 4 24 2 36-6 0 0 246-156 246-156 0 0 226 326 226 326 6 11 16 17 28 19 12 2 23-1 34-9 25-16 29-37 12-62 0 0-252-362-252-362-16-24-37-28-62-12 0 0-244 156-244 156" horiz-adv-x="1003" />

<glyph glyph-name="chart-pie" unicode="&#xe82e;" d="M368 770c0 0 0-368 0-368 0 0-368 0-368 0 12 97 52 180 121 249 69 69 151 108 247 119 0 0 0 0 0 0m106 0c104-13 191-60 261-139 70-79 105-172 105-279 0-116-41-215-123-298-82-83-182-124-299-124-107 0-199 35-278 105-79 70-125 158-140 263 0 0 424 0 424 0 13 0 25 5 35 14 10 9 15 21 15 36 0 0 0 422 0 422 0 0 0 0 0 0" horiz-adv-x="840" />

<glyph glyph-name="chat" unicode="&#xe82f;" d="M290 240c0 0 350 0 350 0 1 0 3 1 6 2 0 0 4 0 4 0 0 0 0-92 0-92 0-27-10-50-29-70-19-20-43-30-71-30 0 0-250 0-250 0 0 0-150-150-150-150 0 0 0 150 0 150 0 0-50 0-50 0-27 0-50 10-70 30-20 20-30 43-30 70 0 0 0 300 0 300 0 28 10 52 30 71 20 19 43 29 70 29 0 0 190 0 190 0 0 0 0-310 0-310 0 0 0 0 0 0m610 560c28 0 52-10 71-29 19-19 29-43 29-71 0 0 0-300 0-300 0-27-10-50-29-70-19-20-43-30-71-30 0 0-50 0-50 0 0 0 0-150 0-150 0 0-150 150-150 150 0 0-350 0-350 0 0 0 0 400 0 400 0 28 10 52 30 71 20 19 43 29 70 29 0 0 450 0 450 0 0 0 0 0 0 0" horiz-adv-x="1000" />

<glyph glyph-name="check" unicode="&#xe830;" d="M248 0c-23 0-41 9-56 28 0 0-180 236-180 236-11 16-15 33-12 52 3 19 11 34 26 46 15 12 32 17 51 14 19-3 35-12 47-28 0 0 118-154 118-154 0 0 296 474 296 474 11 16 25 26 43 30 18 4 36 1 53-8 16-11 26-25 30-43 4-18 1-36-8-53 0 0-350-560-350-560-13-21-32-32-56-32 0 0-2-2-2-2" horiz-adv-x="666" />

<glyph glyph-name="clipboard" unicode="&#xe831;" d="M630 750c19 0 35-7 49-21 14-14 21-30 21-49 0 0 0-760 0-760 0-20-7-37-21-50-14-13-30-20-49-20 0 0-560 0-560 0-19 0-35 7-49 20-14 13-21 30-21 50 0 0 0 760 0 760 0 19 7 35 21 49 14 14 30 21 49 21 0 0 60-150 60-150 0 0 440 0 440 0 0 0 60 150 60 150m-100-100c0 0-360 0-360 0 0 0-44 100-44 100 0 0 108 0 108 0 0 0 36 100 36 100 0 0 160 0 160 0 0 0 36-100 36-100 0 0 110 0 110 0 0 0-46-100-46-100" horiz-adv-x="700" />

<glyph glyph-name="clock" unicode="&#xe832;" d="M460 810c127 0 235-45 325-135 90-90 135-198 135-325 0-127-45-235-135-325-90-90-198-135-325-135-127 0-235 45-325 135-90 90-135 198-135 325 0 127 45 235 135 325 90 90 198 135 325 135 0 0 0 0 0 0m0-820c100 0 185 35 255 106 70 71 105 155 105 254 0 100-35 185-105 255-70 70-155 105-255 105-99 0-183-35-254-105-71-70-106-155-106-255 0-99 35-183 106-254 71-71 155-106 254-106 0 0 0 0 0 0m36 620c0 0 0-244 0-244 0 0 150-150 150-150 0 0-50-50-50-50 0 0-170 170-170 170 0 0 0 274 0 274 0 0 70 0 70 0 0 0 0 0 0 0" horiz-adv-x="920" />

<glyph glyph-name="cloud-thunder" unicode="&#xe833;" d="M760 494c67 0 123-23 170-68 47-45 70-101 70-166 0-65-23-121-70-166-47-45-103-68-170-68 0 0-578 0-578 0-49 0-92 17-128 52-36 35-54 76-54 124 0 49 18 91 53 126 35 35 78 52 129 52 1 0 5 0 10-1 5-1 9-1 10-1-1 8-2 21-2 38 0 72 26 133 78 184 52 51 115 76 188 76 60 0 113-17 160-52 47-35 78-79 94-134 19 3 32 4 40 4 0 0 0 0 0 0m-192-216c9 11 14 21 14 30 0 13-10 24-30 32 0 0-4 0-4 0-17 9-30 15-38 16 0 0 50 116 50 116 4 0 6 7 6 20 0 9-3 15-8 18-11 7-22 4-34-8-1-1-11-12-30-32-19-20-39-42-61-66-22-24-37-41-45-52-8-12-12-22-12-30 0-15 10-25 30-30 0 0 4-2 4-2 5-3 18-8 38-16 0 0-52-114-52-114 0 0-2-8-2-8-1-5-2-10-2-14 0-7 3-13 8-18 12-7 23-3 34 10 67 67 111 116 134 148 0 0 0 0 0 0" horiz-adv-x="1000" />

<glyph glyph-name="cloud" unicode="&#xe834;" d="M760 494c67 0 123-23 170-68 47-45 70-101 70-166 0-65-23-121-70-166-47-45-103-68-170-68 0 0-578 0-578 0-49 0-92 17-128 52-36 35-54 76-54 124 0 49 18 91 53 126 35 35 78 52 129 52 1 0 5 0 10-1 5-1 9-1 10-1-1 8-2 21-2 38 0 72 26 133 78 184 52 51 115 76 188 76 60 0 113-17 160-52 47-35 78-79 94-134 19 3 32 4 40 4 0 0 0 0 0 0" horiz-adv-x="1000" />

<glyph glyph-name="code" unicode="&#xe835;" d="M380 636c11-9 16-20 16-32 0-12-5-22-16-30 0 0-246-224-246-224 0 0 246-226 246-226 11-8 16-18 16-30 0-12-5-23-16-32-20-20-40-20-60 0 0 0-320 288-320 288 0 0 320 286 320 286 20 20 40 20 60 0 0 0 0 0 0 0m302 0c0 0 318-286 318-286 0 0-318-288-318-288-21-20-42-20-62 0-21 21-21 42 0 62 0 0 248 226 248 226 0 0-248 224-248 224-21 20-21 41 0 62 20 20 41 20 62 0 0 0 0 0 0 0" horiz-adv-x="1000" />

<glyph glyph-name="cog" unicode="&#xe836;" d="M760 350c0-48 27-89 80-122-8-27-19-54-34-82-47 12-92-3-136-44-36-39-47-84-34-136-27-13-55-25-84-36-31 55-75 82-132 82-57 0-101-27-132-82-29 11-57 23-84 36 13 53 2 99-34 136-36 36-81 47-136 34-9 17-21 45-34 82 55 35 82 79 82 132 0 48-27 89-82 124 13 37 25 65 34 82 49-12 95 3 136 44 36 37 47 83 34 136 28 15 56 26 84 34 31-53 75-80 132-80 57 0 101 27 132 80 28-8 56-19 84-34-13-52-2-97 34-136 44-41 89-56 136-44 15-28 26-55 34-82-53-33-80-75-80-124 0 0 0 0 0 0m-340-182c51 0 94 18 129 53 35 35 53 78 53 129 0 51-18 94-53 130-35 36-78 54-129 54-51 0-94-18-129-54-35-36-53-79-53-130 0-51 18-94 53-129 35-35 78-53 129-53 0 0 0 0 0 0" horiz-adv-x="840" />

<glyph glyph-name="comment" unicode="&#xe837;" d="M700 700c28 0 52-10 71-29 19-19 29-43 29-71 0 0 0-350 0-350 0-27-10-50-29-70-19-20-43-30-71-30 0 0-200 0-200 0 0 0 0-150 0-150 0 0-200 150-200 150 0 0-200 0-200 0-27 0-50 10-70 30-20 20-30 43-30 70 0 0 0 350 0 350 0 28 10 52 30 71 20 19 43 29 70 29 0 0 600 0 600 0 0 0 0 0 0 0" horiz-adv-x="800" />

<glyph glyph-name="compass" unicode="&#xe838;" d="M474 830c132 1 245-44 340-136 95-92 143-204 146-336 1-133-44-247-136-342-92-95-205-143-338-146-132-1-246 44-341 137-95 93-144 205-145 337-3 133 42 247 135 342 93 95 206 143 339 144 0 0 0 0 0 0m12-858c104 1 193 39 266 114 73 75 109 165 108 270-1 105-40 194-115 267-75 73-165 108-269 107-105-1-194-39-267-114-73-75-108-165-107-270 1-105 39-194 114-267 75-73 165-108 270-107 0 0 0 0 0 0m-234 154c3 17 7 39 12 66 5 27 19 69 41 128 22 59 48 103 77 132 29 29 71 55 125 76 54 21 101 35 141 42 0 0 60 10 60 10-3-17-7-39-12-66-5-27-19-69-41-128-22-59-48-103-77-132-28-28-69-53-124-74-55-21-102-35-142-42 0 0-60-12-60-12m180 276c-15-13-22-29-22-48 0-19 7-35 22-50 13-15 30-22 49-22 19 0 36 7 49 22 35 35 64 97 88 186-91-24-153-53-186-88 0 0 0 0 0 0" horiz-adv-x="960" />

<glyph glyph-name="credit-card" unicode="&#xe839;" d="M900 700c28 0 52-10 71-30 19-20 29-43 29-70 0 0 0-500 0-500 0-28-10-52-29-71-19-19-43-29-71-29 0 0-800 0-800 0-27 0-50 10-70 29-20 19-30 43-30 71 0 0 0 500 0 500 0 27 10 50 30 70 20 20 43 30 70 30 0 0 800 0 800 0 0 0 0 0 0 0m0-600c0 0 0 300 0 300 0 0-800 0-800 0 0 0 0-300 0-300 0 0 800 0 800 0 0 0 0 0 0 0m0 450c0 0 0 50 0 50 0 0-800 0-800 0 0 0 0-50 0-50 0 0 800 0 800 0 0 0 0 0 0 0m-700-256c0 0 30 0 30 0 0 0 0-30 0-30 0 0-30 0-30 0 0 0 0 30 0 30 0 0 0 0 0 0m180-60c0 0 30 0 30 0 0 0 0 30 0 30 0 0 30 0 30 0 0 0 0 30 0 30 0 0 60 0 60 0 0 0 0-30 0-30 0 0-30 0-30 0 0 0 0-30 0-30 0 0-30 0-30 0 0 0 0-30 0-30 0 0-60 0-60 0 0 0 0 30 0 30 0 0 0 0 0 0m120-30c0 0-30 0-30 0 0 0 0 30 0 30 0 0 30 0 30 0 0 0 0-30 0-30 0 0 0 0 0 0m-150 0c0 0-60 0-60 0 0 0 0 30 0 30 0 0 60 0 60 0 0 0 0-30 0-30 0 0 0 0 0 0m30 60c0 0 0-30 0-30 0 0-30 0-30 0 0 0 0 60 0 60 0 0 60 0 60 0 0 0 0-30 0-30 0 0-30 0-30 0 0 0 0 0 0 0m-120-30c0 0 0-30 0-30 0 0-60 0-60 0 0 0 0 30 0 30 0 0 30 0 30 0 0 0 0 30 0 30 0 0 30 0 30 0 0 0 0 30 0 30 0 0 60 0 60 0 0 0 0-30 0-30 0 0-30 0-30 0 0 0 0-30 0-30 0 0-30 0-30 0 0 0 0 0 0 0" horiz-adv-x="1000" />

<glyph glyph-name="cup" unicode="&#xe83a;" d="M340 760c101 0 184-14 249-41 65-27 95-56 91-87 0 0-72-594-72-594-1-9-13-21-34-36-21-15-54-29-97-42-43-13-89-20-137-20-48 0-93 7-136 20-43 13-75 27-97 42-22 15-34 27-35 36 0 0-72 594-72 594-3 19 9 38 36 57 27 19 67 36 121 50 54 14 115 21 183 21 0 0 0 0 0 0m0-216c48 0 94 5 137 15 43 10 76 21 98 33 22 12 33 22 33 30 0 8-11 18-33 29-22 11-55 22-98 32-43 10-89 15-137 15-48 0-94-5-137-15-43-10-76-21-98-32-22-11-33-21-33-29 0-8 11-18 33-30 22-12 55-23 98-33 43-10 89-15 137-15 0 0 0 0 0 0" horiz-adv-x="680" />

<glyph glyph-name="cw" unicode="&#xe83b;" d="M408 760c112 0 208-39 287-116 79-77 120-171 123-282 0 0 122 0 122 0 0 0-184-206-184-206 0 0-184 206-184 206 0 0 144 0 144 0-3 83-34 153-94 210-60 57-131 86-214 86-84 0-156-30-216-90-60-60-90-133-90-218 0-84 30-156 90-216 60-60 132-90 216-90 69 0 130 20 182 60 0 0 70-76 70-76-73-59-157-88-252-88-112 0-208 40-288 120-80 80-120 177-120 290 0 113 40 210 120 290 80 80 176 120 288 120 0 0 0 0 0 0" horiz-adv-x="940" />

<glyph glyph-name="database" unicode="&#xe83c;" d="M686 208c9 13 14 13 14-2 0 0 0-100 0-100 0-49-35-94-104-135-69-41-151-61-246-61-93 0-175 20-245 61-70 41-105 86-105 135 0 0 0 100 0 100 0 5 1 9 4 10 3 1 6-1 10-8 21-35 63-63 125-86 62-23 132-34 211-34 79 0 149 11 211 34 62 23 104 51 125 86 0 0 0 0 0 0m2 254c5 11 9 11 12 0 0 0 0-116 0-116 0-45-34-83-102-114-68-31-151-46-248-46-96 0-178 15-247 46-69 31-103 69-103 114 0 0 0 116 0 116 0 13 5 13 14 0 20-31 61-56 124-75 63-19 133-29 212-29 79 0 149 10 212 29 63 19 105 44 126 75 0 0 0 0 0 0m-338 328c96 0 178-13 247-39 69-26 103-57 103-93 0 0 0-64 0-64 0-39-34-72-103-99-69-27-151-41-247-41-96 0-178 14-247 41-69 27-103 60-103 99 0 0 0 64 0 64 0 36 34 67 103 93 69 26 151 39 247 39 0 0 0 0 0 0" horiz-adv-x="700" />

<glyph glyph-name="db-shape" unicode="&#xe83d;" d="M450 800c184 0 305-29 363-88 58-59 87-179 87-362 0-184-29-305-87-363-58-58-179-87-363-87-183 0-303 29-362 87-59 58-88 179-88 363 0 183 29 303 88 362 59 59 179 88 362 88 0 0 0 0 0 0" horiz-adv-x="900" />

<glyph glyph-name="direction" unicode="&#xe83e;" d="M848 768c5-5 9-11 11-16 2-5 1-13-2-22-3-9-7-18-10-26-3-8-10-21-19-39-9-18-17-34-24-49-36-75-85-170-147-286-62-116-114-213-157-292 0 0-66-118-66-118 0 0-54 380-54 380 0 0-380 56-380 56 295 164 527 287 696 368 13 7 29 15 48 25 19 10 32 17 39 20 7 3 16 6 25 9 9 3 17 3 23 1 6-2 12-6 17-11 0 0 0 0 0 0m-92-96c0 0-304-280-304-280 0 0 28-234 28-234 0 0 276 514 276 514" horiz-adv-x="860" />

<glyph glyph-name="doc-landscape" unicode="&#xe83f;" d="M0 600c0 28 10 52 30 71 20 19 43 29 70 29 0 0 800 0 800 0 28 0 52-10 71-29 19-19 29-43 29-71 0 0 0-500 0-500 0-27-10-50-29-70-19-20-43-30-71-30 0 0-800 0-800 0-27 0-50 10-70 30-20 20-30 43-30 70 0 0 0 500 0 500 0 0 0 0 0 0m900 0c0 0-800 0-800 0 0 0 0-500 0-500 0 0 800 0 800 0 0 0 0 500 0 500 0 0 0 0 0 0" horiz-adv-x="1000" />

<glyph glyph-name="doc-text-inv" unicode="&#xe840;" d="M600 800c28 0 52-10 71-29 19-19 29-43 29-71 0 0 0-700 0-700 0-27-10-50-29-70-19-20-43-30-71-30 0 0-500 0-500 0-27 0-50 10-70 30-20 20-30 43-30 70 0 0 0 700 0 700 0 28 10 52 30 71 20 19 43 29 70 29 0 0 500 0 500 0 0 0 0 0 0 0m-460-208c0 0 0-88 0-88 0 0 420 0 420 0 0 0 0 88 0 88 0 0-420 0-420 0 0 0 0 0 0 0m420-480c0 0 0 88 0 88 0 0-420 0-420 0 0 0 0-88 0-88 0 0 420 0 420 0 0 0 0 0 0 0m0 196c0 0 0 90 0 90 0 0-418 0-418 0 0 0 0-90 0-90 0 0 418 0 418 0 0 0 0 0 0 0" horiz-adv-x="700" />

<glyph glyph-name="doc-text" unicode="&#xe841;" d="M212 308c0 0 0 90 0 90 0 0 280 0 280 0 0 0 0-90 0-90 0 0-280 0-280 0 0 0 0 0 0 0m388 492c28 0 52-10 71-29 19-19 29-43 29-71 0 0 0-700 0-700 0-27-10-50-29-70-19-20-43-30-71-30 0 0-500 0-500 0-27 0-50 10-70 30-20 20-30 43-30 70 0 0 0 700 0 700 0 28 10 52 30 71 20 19 43 29 70 29 0 0 500 0 500 0 0 0 0 0 0 0m0-800c0 0 0 700 0 700 0 0-500 0-500 0 0 0 0-700 0-700 0 0 500 0 500 0 0 0 0 0 0 0m-110 592c0 0 0-88 0-88 0 0-280 0-280 0 0 0 0 88 0 88 0 0 280 0 280 0 0 0 0 0 0 0m0-392c0 0 0-88 0-88 0 0-280 0-280 0 0 0 0 88 0 88 0 0 280 0 280 0 0 0 0 0 0 0" horiz-adv-x="700" />

<glyph glyph-name="doc" unicode="&#xe842;" d="M600 800c28 0 52-10 71-29 19-19 29-43 29-71 0 0 0-700 0-700 0-27-10-50-29-70-19-20-43-30-71-30 0 0-500 0-500 0-27 0-50 10-70 30-20 20-30 43-30 70 0 0 0 700 0 700 0 28 10 52 30 71 20 19 43 29 70 29 0 0 500 0 500 0 0 0 0 0 0 0m0-800c0 0 0 700 0 700 0 0-500 0-500 0 0 0 0-700 0-700 0 0 500 0 500 0 0 0 0 0 0 0" horiz-adv-x="700" />

<glyph glyph-name="dot-2" unicode="&#xe843;" d="M110 460c31 0 57-11 78-32 21-21 32-47 32-78 0-29-11-55-32-77-21-22-47-33-78-33-31 0-57 11-78 32-21 21-32 47-32 78 0 31 11 57 32 78 21 21 47 32 78 32 0 0 0 0 0 0m350 0c31 0 57-11 78-32 21-21 32-47 32-78 0-29-11-55-33-77-22-22-48-33-77-33-31 0-57 11-78 32-21 21-32 47-32 78 0 31 11 57 32 78 21 21 47 32 78 32 0 0 0 0 0 0" horiz-adv-x="570" />

<glyph glyph-name="docs" unicode="&#xe844;" d="M970 480c25-7 35-22 30-46 0 0-150-556-150-556-3-11-9-18-18-23-9-5-19-6-30-3 0 0-406 110-406 110-11 3-19 9-24 18-5 9-7 19-4 28 0 0 24 92 24 92 0 0-180-48-180-48-27-7-43 2-50 26 0 0-160 602-160 602-7 24 3 40 28 48 0 0 454 122 454 122 11 3 21 2 30-3 9-5 15-12 18-23 0 0 66-244 66-244 0 0 372-100 372-100m-888 190c0 0 144-542 144-542 0 0 392 106 392 106 0 0-144 540-144 540 0 0-392-104-392-104m702-742c0 0 132 492 132 492 0 0-298 82-298 82 0 0 76-282 76-282 7-23-3-38-28-46 0 0-196-52-196-52 0 0-26-102-26-102 0 0 340-92 340-92" horiz-adv-x="1000" />

<glyph glyph-name="dot-3" unicode="&#xe845;" d="M110 460c31 0 57-11 78-32 21-21 32-47 32-78 0-29-11-55-32-77-21-22-47-33-78-33-31 0-57 11-78 33-21 22-32 48-32 77 0 31 11 57 32 78 21 21 47 32 78 32 0 0 0 0 0 0m350 0c31 0 57-11 78-32 21-21 32-47 32-78 0-29-11-55-33-77-22-22-48-33-77-33-29 0-55 11-77 33-22 22-33 48-33 77 0 31 11 57 32 78 21 21 47 32 78 32 0 0 0 0 0 0m350 0c31 0 57-11 78-32 21-21 32-47 32-78 0-29-11-55-32-77-21-22-47-33-78-33-31 0-57 11-78 33-21 22-32 48-32 77 0 31 11 57 32 78 21 21 47 32 78 32 0 0 0 0 0 0" horiz-adv-x="920" />

<glyph glyph-name="dot" unicode="&#xe846;" d="M110 460c31 0 57-11 78-32 21-21 32-47 32-78 0-29-11-55-32-77-21-22-47-33-78-33-31 0-57 11-78 33-21 22-32 48-32 77 0 31 11 57 32 78 21 21 47 32 78 32 0 0 0 0 0 0" horiz-adv-x="220" />

<glyph glyph-name="down-bold" unicode="&#xe847;" d="M760 366c0 0-380-380-380-380 0 0-380 380-380 380 0 0 192 0 192 0 0 0 0 350 0 350 0 0 376 0 376 0 0 0 0-350 0-350 0 0 192 0 192 0 0 0 0 0 0 0" horiz-adv-x="760" />

<glyph glyph-name="down-circled" unicode="&#xe848;" d="M460 810c127 0 235-45 325-135 90-90 135-198 135-325 0-127-45-235-135-325-90-90-198-135-325-135-127 0-235 45-325 135-90 90-135 198-135 325 0 127 45 235 135 325 90 90 198 135 325 135 0 0 0 0 0 0m0-820c99 0 183 35 254 106 71 71 106 155 106 254 0 100-35 185-106 255-71 70-155 105-254 105-99 0-183-35-254-105-71-70-106-155-106-255 0-99 35-183 106-254 71-71 155-106 254-106 0 0 0 0 0 0m90 554c0 0 0-206 0-206 0 0 112 0 112 0 0 0-202-190-202-190 0 0-202 190-202 190 0 0 112 0 112 0 0 0 0 206 0 206 0 0 180 0 180 0 0 0 0 0 0 0" horiz-adv-x="920" />

<glyph glyph-name="down-dir" unicode="&#xe849;" d="M460 550c0 0-230-400-230-400 0 0-230 400-230 400 0 0 460 0 460 0 0 0 0 0 0 0" horiz-adv-x="460" />

<glyph glyph-name="down-open-big" unicode="&#xe84a;" d="M63 570c0 0 370-356 370-356 0 0 372 356 372 356 15 17 31 17 48 0 17-15 17-31 0-48 0 0-396-392-396-392-15-15-31-15-48 0 0 0-396 392-396 392-17 17-17 33 0 48 16 16 33 16 50 0 0 0 0 0 0 0" horiz-adv-x="866" />

<glyph glyph-name="down-open-mini" unicode="&#xe84b;" d="M405 470c15 17 31 17 48 0 17-15 17-31 0-48 0 0-196-192-196-192-15-15-31-15-48 0 0 0-196 192-196 192-17 17-17 33 0 48 16 16 33 16 50 0 0 0 170-156 170-156 0 0 172 156 172 156" horiz-adv-x="466" />

<glyph glyph-name="down-open" unicode="&#xe84c;" d="M564 422c0 0-234-224-234-224-12-12-25-18-40-18-15 0-28 6-40 18 0 0-234 224-234 224-11 11-16 24-16 41 0 17 5 30 16 41 25 25 51 25 78 0 0 0 196-188 196-188 0 0 196 188 196 188 27 25 53 25 78 0 11-11 16-24 16-41 0-17-5-30-16-41 0 0 0 0 0 0" horiz-adv-x="580" />

<glyph glyph-name="down-thin" unicode="&#xe84d;" d="M500 100c0 0-250-240-250-240 0 0-250 240-250 240 0 0 162 0 162 0 0 0 0 740 0 740 0 0 176 0 176 0 0 0 0-740 0-740 0 0 162 0 162 0 0 0 0 0 0 0" horiz-adv-x="500" />

<glyph glyph-name="down" unicode="&#xe84e;" d="M660 366c0 0-330-380-330-380 0 0-330 380-330 380 0 0 192 0 192 0 0 0 0 350 0 350 0 0 276 0 276 0 0 0 0-350 0-350 0 0 192 0 192 0 0 0 0 0 0 0" horiz-adv-x="660" />

<glyph glyph-name="download" unicode="&#xe84f;" d="M968 198c12-7 21-17 27-32 6-15 7-28 3-40 0 0-28-154-28-154-3-13-10-24-22-33-12-9-26-13-40-13 0 0-816 0-816 0-15 0-28 4-40 13-12 9-20 20-22 33 0 0-28 154-28 154-7 32 4 56 32 72 0 0 158 108 158 108 0 0 98 0 98 0 0 0-170-130-170-130 0 0 178 0 178 0 5 0 9-3 12-8 0 0 40-110 40-110 0 0 300 0 300 0 0 0 40 110 40 110 5 5 9 8 12 8 0 0 178 0 178 0 0 0-170 130-170 130 0 0 98 0 98 0 0 0 160-108 160-108m-208 322c0 0-260-244-260-244 0 0-260 244-260 244 0 0 166 0 166 0 0 0 0 256 0 256 0 0 190 0 190 0 0 0 0-256 0-256 0 0 164 0 164 0 0 0 0 0 0 0" horiz-adv-x="1000" />

<glyph glyph-name="dribbble-circled" unicode="&#xe850;" d="M494 352c-29-9-57-24-82-44-25-20-44-37-55-51-11-14-20-26-25-35-32 39-48 81-48 128 0 0 0 4 0 4 71 0 137 9 200 28 0 0 14-28 14-28 0 0-4-2-4-2m114 148c-21-28-55-51-100-68-17 32-41 69-70 110 9 3 23 4 42 4 48 0 91-15 128-46 0 0 0 0 0 0m-246-304c27 53 77 93 152 120 23-61 36-110 40-146-24-11-49-16-74-16-45 0-85 14-118 42 0 0 0 0 0 0m104 222c-61-16-120-24-176-24 12 61 47 106 104 134 21-27 45-63 72-110 0 0 0 0 0 0m90-92c8 1 21 2 38 2 20 0 47-3 80-10-11-55-38-97-82-128-4 37-16 83-36 136 0 0 0 0 0 0m-76 504c133 0 247-47 340-140 93-93 140-207 140-340 0-132-47-245-140-339-93-94-207-141-340-141-132 0-245 47-339 141-94 94-141 207-141 339 0 133 47 247 141 340 94 93 207 140 339 140 0 0 0 0 0 0m0-714c65 0 121 23 167 69 46 46 69 101 69 165 0 65-23 121-69 167-46 46-102 69-167 69-65 0-121-23-166-69-45-46-68-102-68-167 0-64 23-119 68-165 45-46 101-69 166-69 0 0 0 0 0 0m46 282c48 19 84 43 108 74 28-35 42-73 42-116-32 5-62 8-90 8-20 0-35-1-44-2-1 1-2 3-2 4 0 3-1 4-2 4-1 3-3 7-6 13-3 6-5 11-6 15 0 0 0 0 0 0" horiz-adv-x="960" />

<glyph glyph-name="dribbble" unicode="&#xe851;" d="M438 480c-20 36-42 72-66 109-24 37-43 65-56 84-13 19-21 30-24 33-55-27-101-64-139-112-38-48-64-102-77-162 121 0 242 16 362 48 0 0 0 0 0 0m50-132c5 3 10 4 14 4-7 19-17 41-32 68-121-37-255-56-402-56 0 0 0-14 0-14 0-100 33-187 100-262 3 5 7 12 13 21 6 9 19 25 39 50 20 25 41 48 64 69 23 21 52 43 89 66 37 23 75 41 115 54 0 0 0 0 0 0m-270-306c-1 0-3 1-4 2 0 0-4 4-4 4 0 0 8-6 8-6m148 690c0 0 0 0 0 0m354-86c-76 65-163 98-260 98-32 0-63-4-92-12 55-72 103-148 146-228 92 35 160 81 204 140 0 0 2 2 2 2m-260-756c-127 0-235 45-325 135-90 90-135 198-135 325 0 127 45 235 135 325 90 90 198 135 325 135 127 0 235-45 325-135 90-90 135-198 135-325 0-127-45-235-135-325-90-90-198-135-325-135 0 0 0 0 0 0m68 396c-144-49-247-130-308-242 0 0-2-2-2-2 73-56 154-84 242-84 52 0 103 11 154 32-16 93-44 193-84 298 0 0-2-2-2-2m16 158c8-16 17-35 26-56 1-1 3-4 5-9 2-5 4-8 5-11 44 5 87 7 129 4 42-3 76-6 101-10 25-4 39-7 42-8 0 92-29 174-88 246 0 0-8-10-8-10-5-7-14-16-26-27-12-11-26-23-42-36-16-13-37-27-62-42-25-15-53-29-82-41 0 0 0 0 0 0m60-138c35-99 60-192 76-280 93 61 149 149 168 262-5 3-18 6-39 11-21 5-50 9-88 12-38 3-77 2-117-5 0 0 0 0 0 0" horiz-adv-x="920" />

<glyph glyph-name="drive" unicode="&#xe852;" d="M884 304c18-29 22-61 14-96 0 0-34-184-34-184-1-13-7-25-19-35-11-10-24-15-39-15 0 0-712 0-712 0-13 0-26 5-38 15-12 10-18 22-20 35 0 0-34 184-34 184-5 35 0 67 14 96 0 0 158 374 158 374 15 31 39 46 72 46 0 0 408 0 408 0 34 0 58-15 74-46 0 0 156-374 156-374m-68-132c2 15-2 27-10 38-8 11-19 16-34 16 0 0-644 0-644 0-14 0-26-5-34-16-8-11-11-23-10-38 0 0 14-74 14-74 2-15 8-27 19-37 12-10 25-15 39-15 0 0 590 0 590 0 15 0 28 5 39 15 12 10 18 22 19 37 0 0 12 74 12 74" horiz-adv-x="902" />

<glyph glyph-name="dropbox" unicode="&#xe853;" d="M286 806c0 0 194-158 194-158 0 0-284-184-284-184 0 0-196 164-196 164 0 0 286 178 286 178m368-754c5 0 9 1 12 2 0 0 116 78 116 78 0 0 0-46 0-46 0 0-302-190-302-190 0 0-302 190-302 190 0 0 0 46 0 46 0 0 118-78 118-78 3-1 7-2 12-2 7 0 11 1 14 4 0 0 158 132 158 132 0 0 160-132 160-132 3-3 7-4 14-4 0 0 0 0 0 0m306 576c0 0-194-164-194-164 0 0-286 184-286 184 0 0 196 158 196 158 0 0 284-178 284-178m-480-342c0 0 286 178 286 178 0 0 174-140 174-140 0 0-282-184-282-184 0 0-178 146-178 146m-176-146c0 0-282 184-282 184 0 0 174 140 174 140 0 0 284-178 284-178 0 0-176-146-176-146" horiz-adv-x="960" />

<glyph glyph-name="droplet" unicode="&#xe854;" d="M290 822c9-79 29-152 60-219 31-67 61-120 92-159 31-39 58-84 82-136 24-52 36-105 36-160 0-76-28-141-83-196-55-55-121-82-197-82-76 0-142 27-197 82-55 55-83 120-83 196 0 55 12 108 36 160 24 52 51 97 82 136 31 39 61 92 92 159 31 67 51 140 60 219 1 5 5 8 11 8 6 0 9-3 9-8 0 0 0 0 0 0m-42-392c1 3 1 7-2 14-4 4-9 6-14 6-5 0-9-2-12-6 0 0-40-58-40-58-21-31-37-54-48-70-11-16-22-41-34-75-12-34-18-68-18-101 0-16 6-30 17-41 11-11 25-17 41-17 39 0 58 23 58 68 0 63 14 145 42 246 1 4 3 10 5 17 2 7 4 13 5 17 0 0 0 0 0 0" horiz-adv-x="560" />

<glyph glyph-name="erase" unicode="&#xe855;" d="M902 700c28 0 52-10 71-29 19-19 29-43 29-71 0 0 0-500 0-500 0-27-10-50-29-70-19-20-43-30-71-30 0 0-478 0-478 0-25 0-49 9-70 28 0 0-340 296-340 296-19 17-19 35 0 54 0 0 340 296 340 296 20 17 43 26 70 26 0 0 478 0 478 0 0 0 0 0 0 0m-140-550c0 0 72 74 72 74 0 0-128 126-128 126 0 0 128 128 128 128 0 0-72 72-72 72 0 0-128-126-128-126 0 0-128 126-128 126 0 0-72-72-72-72 0 0 128-128 128-128 0 0-128-126-128-126 0 0 72-74 72-74 0 0 128 128 128 128 0 0 128-128 128-128" horiz-adv-x="1002" />

<glyph glyph-name="evernote" unicode="&#xe856;" d="M750 636c0-3 2-27 5-73 3-46 6-94 9-144 3-50 2-107-1-171-3-64-10-121-19-171-9-50-26-92-51-126-25-34-55-51-91-51-103 0-167 9-194 26-17 13-23 57-18 130 1 27 14 46 37 59 23 13 46 19 69 19 0 0 34-2 34-2 0 0-4-70-4-70-8-1-21-2-38-2-13 0-21-9-24-26-3-25 11-39 40-42 0 0 86 4 86 4 25 3 35 48 28 136-1 11-7 19-18 26-11 7-22 11-34 13-12 2-28 5-49 8-21 3-36 6-47 9-19 5-34 15-46 28-12 13-21 26-27 37-6 11-10 17-11 17-1 0-4-19-8-58-4-39-14-58-30-58-29 0-76 5-139 15-63 10-102 22-115 35-23 23-43 72-62 149-19 77-28 127-28 151 0 23 19 33 58 30 0 0 116 0 116 0 52 0 78 24 78 72 0 8 0 25-1 52-1 27-1 47-1 60 0 55 13 82 40 82 60 0 100-5 120-14 12-5 22-14 29-26 7-12 12-23 13-34 0 0 4-14 4-14 0 0 202-12 202-12 7 0 15-1 25-3 10-2 23-8 39-19 16-11 24-25 24-42 0 0 0 0 0 0m-96-302c4 4 3 15-2 32-5 17-15 35-29 52-14 17-30 26-49 26-19 0-34-8-45-23-11-15-18-31-21-46-3-15-3-25 0-29 5-4 10-6 15-5 5 1 13 2 26 5 13 3 23 4 31 4 9 0 20-2 31-6 11-4 21-7 28-10 7-3 12-3 15 0 0 0 0 0 0 0m-482 308c0-15-9-22-28-22 0 0-144 0-144 0 0 0 176 172 176 172-3-92-4-142-4-150 0 0 0 0 0 0" horiz-adv-x="766" />

<glyph glyph-name="export" unicode="&#xe857;" d="M750 60c0 0 0 56 0 56 0 0 100 82 100 82 0 0 0-188 0-188 0-13-5-25-15-35-10-10-22-15-35-15 0 0-750 0-750 0-13 0-25 5-35 15-10 10-15 22-15 35 0 0 0 550 0 550 0 15 5 27 14 36 9 9 21 14 36 14 0 0 288 0 288 0-21-16-41-32-59-49-18-17-31-30-39-39 0 0-10-12-10-12 0 0-130 0-130 0 0 0 0-450 0-450 0 0 650 0 650 0 0 0 0 0 0 0m-82 348c-111 0-191-14-242-41-51-27-104-88-160-181 0 5 0 13 1 22 1 9 4 28 9 56 5 28 13 54 22 79 9 25 24 52 44 83 20 31 43 57 70 79 27 22 62 41 107 56 45 15 94 23 149 23 0 0 0 156 0 156 0 0 332-250 332-250 0 0-332-260-332-260 0 0 0 178 0 178 0 0 0 0 0 0" horiz-adv-x="1000" />

<glyph glyph-name="eye" unicode="&#xe858;" d="M500 630c61 0 120-8 177-25 57-17 104-37 141-62 37-25 70-50 99-77 29-27 50-50 63-71 13-21 20-36 20-45 0-9-7-24-20-44-13-20-34-44-63-71-29-27-62-53-99-78-37-25-84-45-141-62-57-17-116-25-177-25-61 0-120 8-177 25-57 17-104 37-141 62-37 25-70 51-99 78-29 27-50 51-63 71-13 20-20 35-20 44 0 9 7 24 20 45 13 21 34 44 63 71 29 27 62 52 99 77 37 25 84 45 141 62 57 17 116 25 177 25 0 0 0 0 0 0m0-494c61 0 114 21 157 63 43 42 65 92 65 151 0 60-22 111-65 153-43 42-96 63-157 63-61 0-114-21-157-63-43-42-65-93-65-153 0-59 22-109 65-151 43-42 96-63 157-63 0 0 0 0 0 0m0 214c5-5 18-6 37-2 19 4 36 8 50 11 14 3 22 0 25-9 0-29-11-54-33-75-22-21-48-31-79-31-31 0-57 10-78 31-21 21-32 46-32 75 0 31 11 56 32 77 21 21 47 31 78 31 9 0 13-8 10-23-3-15-7-31-12-47-5-16-5-29 2-38 0 0 0 0 0 0" horiz-adv-x="1000" />

<glyph glyph-name="facebook-circled" unicode="&#xe859;" d="M480 830c133 0 247-47 340-140 93-93 140-207 140-340 0-132-47-245-140-339-93-94-207-141-340-141-133 0-247 47-340 141-93 94-140 207-140 339 0 133 47 247 140 340 93 93 207 140 340 140 0 0 0 0 0 0m114-330c0 0 0 78 0 78 0 0-72 0-72 0-29 0-54-11-74-33-20-22-30-49-30-81 0 0 0-44 0-44 0 0-76 0-76 0 0 0 0-74 0-74 0 0 76 0 76 0 0 0 0-222 0-222 0 0 86 0 86 0 0 0 0 222 0 222 0 0 90 0 90 0 0 0 0 74 0 74 0 0-90 0-90 0 0 0 0 52 0 52 0 19 6 28 18 28 0 0 72 0 72 0 0 0 0 0 0 0" horiz-adv-x="960" />

<glyph glyph-name="facebook-squared" unicode="&#xe85a;" d="M752 770c29 0 55-10 76-31 21-21 32-46 32-75 0 0 0-646 0-646 0-29-11-55-32-76-21-21-47-32-76-32 0 0-162 0-162 0 0 0 0 310 0 310 0 0 114 0 114 0 0 0 0 134 0 134 0 0-114 0-114 0 0 0 0 70 0 70 0 20 9 30 28 30 0 0 86 0 86 0 0 0 0 152 0 152 0 0-96 0-96 0-49 0-91-18-124-54-33-36-50-80-50-132 0 0 0-66 0-66 0 0-104 0-104 0 0 0 0-134 0-134 0 0 104 0 104 0 0 0 0-310 0-310 0 0-326 0-326 0-29 0-55 11-76 32-21 21-32 47-32 76 0 0 0 646 0 646 0 29 11 54 32 75 21 21 47 31 76 31 0 0 644 0 644 0 0 0 0 0 0 0" horiz-adv-x="860" />

<glyph glyph-name="facebook" unicode="&#xe85b;" d="M500 644c0 0-142 0-142 0-9 0-18-5-25-15-7-10-11-22-11-37 0 0 0-102 0-102 0 0 178 0 178 0 0 0 0-148 0-148 0 0-178 0-178 0 0 0 0-442 0-442 0 0-170 0-170 0 0 0 0 442 0 442 0 0-152 0-152 0 0 0 0 148 0 148 0 0 152 0 152 0 0 0 0 86 0 86 0 63 20 116 59 159 39 43 88 65 147 65 0 0 142 0 142 0 0 0 0-156 0-156 0 0 0 0 0 0" horiz-adv-x="500" />

<glyph glyph-name="fast-backward" unicode="&#xe85c;" d="M0 350c0 9 5 17 14 24 0 0 374 248 374 248 13 9 25 11 36 6 11-5 16-17 16-36 0 0 0-482 0-482 0-19-5-31-16-36-11-5-23-3-36 6 0 0-374 248-374 248-9 5-14 13-14 22 0 0 0 0 0 0m454 0c0 9 5 17 14 24 0 0 360 248 360 248 13 9 25 11 36 6 11-5 16-17 16-36 0 0 0-482 0-482 0-19-5-31-16-36-11-5-23-3-36 6 0 0-360 248-360 248-9 5-14 13-14 22 0 0 0 0 0 0" horiz-adv-x="880" />

<glyph glyph-name="fast-forward" unicode="&#xe85d;" d="M866 374c9-7 14-15 14-24 0-9-5-17-14-22 0 0-372-248-372-248-15-9-27-11-37-6-10 5-15 17-15 36 0 0 0 482 0 482 0 19 5 31 15 36 10 5 22 3 37-6 0 0 372-248 372-248m-454 0c9-7 14-15 14-24 0-9-5-17-14-22 0 0-360-248-360-248-13-9-25-11-36-6-11 5-16 17-16 36 0 0 0 482 0 482 0 19 5 31 16 36 11 5 23 3 36-6 0 0 360-248 360-248" horiz-adv-x="880" />

<glyph glyph-name="feather" unicode="&#xe85e;" d="M55-138c-4-13-13-16-26-8-12 5-17 17-16 34 3 67 19 142 50 226-67 103-84 208-52 316 7-21 17-47 32-78 15-31 29-57 44-80 15-23 25-33 32-30 5 3 5 30 0 83-5 53-9 108-11 166-2 58 6 110 25 157 15 29 41 61 80 94 39 33 73 57 104 70-16-31-27-62-33-94-6-32-7-58-4-78 3-20 10-31 21-32 8 0 36 40 84 120 48 80 83 121 106 122 31 3 69-7 114-29 45-22 73-44 82-65 8-16 8-42 0-79-8-37-21-64-40-83-29-29-78-50-146-62-68-12-106-20-114-24-11-7-7-18 12-34 36-32 95-39 176-20-37-53-83-91-136-114-53-23-97-35-132-38-35-3-53-6-54-10-3-16 14-34 49-54 35-20 69-25 101-14-20-37-41-65-63-84-22-19-40-30-54-35-14-5-39-8-76-11-37-3-65-5-85-8 0 0-70-224-70-224" horiz-adv-x="693" />

<glyph glyph-name="flag" unicode="&#xe85f;" d="M874 616c9 4 17 4 22-1 5-5 5-11 0-19-64-92-119-163-164-213-45-50-82-80-110-90-28-10-52-11-73-2-21 9-41 21-60 37-19 16-40 29-63 40-23 11-54 9-93-4-39-13-86-42-139-86 0 0 90-352 90-352 0 0-100 0-100 0 0 0-184 720-184 720 0 0 92 34 92 34 60 44 111 73 152 86 41 13 74 14 98 3 24-11 45-28 64-51 19-23 39-46 62-71 23-25 49-45 79-62 30-17 73-23 129-20 56 3 122 20 198 51 0 0 0 0 0 0" horiz-adv-x="900" />

<glyph glyph-name="flash" unicode="&#xe860;" d="M40-100c-3 3 9 34 35 94 26 60 52 121 79 182 27 61 39 94 38 98-1 4-33 19-94 45-61 26-94 44-98 55-3 8 25 48 84 120 59 72 119 142 180 209 61 67 93 100 96 97 4-3-21-65-74-186-53-121-79-183-78-186 1-3 33-17 95-43 62-26 94-45 97-57 3-13-55-89-174-227-119-138-181-205-186-201 0 0 0 0 0 0" horiz-adv-x="400" />

<glyph glyph-name="flashlight" unicode="&#xe861;" d="M806 706c42-41 70-85 85-130 16-45 14-76-5-92 0 0-134-134-134-134-10-11-31-19-62-26-30-7-62-8-96-4 0 0-408-408-408-408-12-12-31-14-57-6-26 8-51 25-75 50-24 24-40 49-49 74-8 25-7 44 5 56 0 0 408 408 408 408-4 33-2 65 4 96 7 31 16 51 26 62 0 0 136 136 136 136 16 19 47 20 92 4 46-16 89-45 130-86 0 0 0 0 0 0m-448-408c22-21 48-17 80 14 31 31 36 58 14 82-9 9-22 13-38 10-16-3-30-11-44-24-13-13-21-28-23-43-2-15 2-28 11-39 0 0 0 0 0 0m336 298c20-20 43-37 68-50 26-13 46-22 62-25 16-3 26-4 28-1 2 3 0 12-4 27-4 15-12 35-26 60-13 25-30 47-50 67-20 20-42 37-66 50-24 13-43 22-59 26-15 4-24 5-27 2-2-3-2-12 1-28 4-16 12-37 25-62 14-25 30-47 48-66 0 0 0 0 0 0" horiz-adv-x="902" />

<glyph glyph-name="flattr" unicode="&#xe862;" d="M180 424c0 0 0-210 0-210 0 0-180-180-180-180 0 0 0 414 0 414 0 201 93 302 278 302 0 0 232 0 232 0 0 0 210 0 210 0 0 0-312-310-312-310-4-4-7-6-10-6-5 0-9 3-12 10 0 0 0 4 0 4 0 0 0 124 0 124-65 0-103-1-112-2-63-11-94-59-94-146 0 0 0 0 0 0m440 64c0 0 180 180 180 180 0 0 0-414 0-414 0-203-93-304-278-304 0 0-232 0-232 0 0 0-208 0-208 0 0 0 312 312 312 312 1 4 4 6 8 6 5 0 9-3 12-10 0 0 0-4 0-4 0 0 0-124 0-124 65 0 103 1 112 2 63 11 94 59 94 146 0 0 0 210 0 210 0 0 0 0 0 0" horiz-adv-x="800" />

<glyph glyph-name="flickr-circled" unicode="&#xe863;" d="M480 830c133 0 247-47 340-140 93-93 140-207 140-340 0-132-47-245-140-339-93-94-207-141-340-141-132 0-245 47-339 141-94 94-141 207-141 339 0 133 47 247 141 340 94 93 207 140 339 140 0 0 0 0 0 0m-128-580c27 0 50 10 70 30 20 20 30 43 30 70 0 28-10 52-30 72-20 20-43 30-70 30-27 0-50-10-70-30-20-20-30-44-30-72 0-27 10-50 30-70 20-20 43-30 70-30 0 0 0 0 0 0m256 0c28 0 52 10 71 30 19 20 29 43 29 70 0 28-10 52-29 72-19 20-43 30-71 30-27 0-50-10-69-30-19-20-29-44-29-72 0-27 10-50 29-70 19-20 42-30 69-30 0 0 0 0 0 0" horiz-adv-x="960" />

<glyph glyph-name="flickr" unicode="&#xe864;" d="M196 150c-53 0-99 20-138 59-39 39-58 86-58 141 0 56 19 103 57 142 38 39 84 58 139 58 55 0 101-19 139-58 38-39 57-86 57-142 0-55-19-102-58-141-39-39-85-59-138-59 0 0 0 0 0 0m508 0c-53 0-99 20-138 59-39 39-58 86-58 141 0 56 19 103 57 142 38 39 84 58 139 58 55 0 101-19 139-58 38-39 57-86 57-142 0-55-19-102-58-141-39-39-85-59-138-59 0 0 0 0 0 0" horiz-adv-x="900" />

<glyph glyph-name="flight" unicode="&#xe865;" d="M268-120c0 0 124 400 124 400 0 0-180 0-180 0 0 0-112-100-112-100 0 0-100 0-100 0 0 0 80 170 80 170 0 0-80 170-80 170 0 0 100 0 100 0 0 0 112-100 112-100 0 0 180 0 180 0 0 0-124 400-124 400 0 0 100 0 100 0 0 0 224-400 224-400 0 0 258 0 258 0 0 0 16 0 16 0 0 0 12-1 36-4 24-3 39-6 46-11 7-5 19-12 36-21 17-9 23-21 16-34 0-21-13-38-38-49-25-11-50-18-74-19 0 0-38-2-38-2 0 0-258 0-258 0 0 0-224-400-224-400 0 0-100 0-100 0 0 0 0 0 0 0" horiz-adv-x="1003" />

<glyph glyph-name="floppy" unicode="&#xe866;" d="M658 750c0 0 142-156 142-156 0 0 0-544 0-544 0-27-10-50-29-70-19-20-43-30-71-30 0 0-600 0-600 0-27 0-50 10-70 30-20 20-30 43-30 70 0 0 0 600 0 600 0 28 10 52 30 71 20 19 43 29 70 29 0 0 558 0 558 0 0 0 0 0 0 0m-58-300c0 0 0 250 0 250 0 0-400 0-400 0 0 0 0-250 0-250 0-13 5-25 15-35 10-10 22-15 35-15 0 0 300 0 300 0 13 0 25 5 35 15 10 10 15 22 15 35 0 0 0 0 0 0m-50 200c0 0 0-200 0-200 0 0-100 0-100 0 0 0 0 200 0 200 0 0 100 0 100 0 0 0 0 0 0 0" horiz-adv-x="800" />

<glyph glyph-name="flow-branch" unicode="&#xe867;" d="M640 650c0-53-25-90-74-110-4-39-13-72-28-101-15-29-35-52-61-69-26-17-49-30-68-38-19-8-44-17-75-26-28-9-49-17-63-22-14-5-30-13-47-24-17-11-30-24-38-40-8-16-13-36-16-60 47-20 70-57 70-110 0-33-12-62-35-85-23-23-52-35-85-35-33 0-62 12-85 35-23 23-35 52-35 85 0 52 24 89 72 112 0 0 0 378 0 378-48 23-72 59-72 110 0 33 12 62 35 85 23 23 52 35 85 35 33 0 62-12 85-35 23-23 35-52 35-85 0-51-24-87-72-110 0 0 0-204 0-204 27 20 73 40 138 60 39 12 67 22 84 29 17 7 34 21 51 41 17 20 26 45 29 76-47 21-70 57-70 108 0 33 12 62 35 85 23 23 52 35 85 35 33 0 62-12 85-35 23-23 35-52 35-85 0 0 0 0 0 0m-588 0c0-19 7-35 20-48 13-13 29-20 48-20 19 0 35 7 49 20 14 13 21 29 21 48 0 20-7 37-21 50-14 13-30 20-49 20-19 0-35-7-48-20-13-13-20-30-20-50 0 0 0 0 0 0m68-668c19 0 35 7 49 20 14 13 21 29 21 48 0 20-7 37-21 50-14 13-30 20-49 20-19 0-35-7-48-20-13-13-20-30-20-50 0-19 7-35 20-48 13-13 29-20 48-20 0 0 0 0 0 0m400 600c19 0 35 7 49 20 14 13 21 29 21 48 0 20-7 37-21 50-14 13-30 20-49 20-19 0-35-7-48-20-13-13-20-30-20-50 0-19 7-35 20-48 13-13 29-20 48-20 0 0 0 0 0 0" horiz-adv-x="640" />

<glyph glyph-name="flow-cascade" unicode="&#xe868;" d="M520 120c33 0 62-12 85-35 23-23 35-52 35-85 0-33-12-62-35-85-23-23-52-35-85-35-53 0-90 25-110 74 0 0-164 0-164 0-59 0-102 18-131 54-29 36-43 75-43 118 0 0 0 464 0 464-48 23-72 59-72 110 0 33 12 62 35 85 23 23 52 35 85 35 33 0 62-12 85-35 23-23 35-52 35-85 0-51-24-87-72-110 0 0 0-114 0-114 0-52 26-78 78-78 0 0 164 0 164 0 20 48 57 72 110 72 33 0 62-12 85-35 23-23 35-52 35-85 0-33-12-62-35-85-23-23-52-35-85-35-53 0-90 25-110 74 0 0-164 0-164 0-28 0-54 5-78 16 0 0 0-194 0-194 0-52 26-78 78-78 0 0 164 0 164 0 20 48 57 72 110 72 0 0 0 0 0 0m0 300c-19 0-35-7-49-20-14-13-21-30-21-50 0-19 7-35 21-48 14-13 30-20 49-20 19 0 35 7 49 20 14 13 21 29 21 48 0 20-7 37-21 50-14 13-30 20-49 20 0 0 0 0 0 0m-470 280c0-19 7-35 21-48 14-13 30-20 49-20 19 0 35 7 49 20 14 13 21 29 21 48 0 20-7 37-21 50-14 13-30 20-49 20-19 0-35-7-49-20-14-13-21-30-21-50 0 0 0 0 0 0m470-768c19 0 35 7 49 20 14 13 21 29 21 48 0 20-7 37-21 50-14 13-30 20-49 20-19 0-35-7-49-20-14-13-21-30-21-50 0-19 7-35 21-48 14-13 30-20 49-20 0 0 0 0 0 0" horiz-adv-x="640" />

<glyph glyph-name="flow-line" unicode="&#xe869;" d="M168 162c48-23 72-60 72-112 0-33-12-62-35-85-23-23-52-35-85-35-33 0-62 12-85 35-23 23-35 52-35 85 0 52 24 89 72 112 0 0 0 378 0 378-48 23-72 59-72 110 0 33 12 62 35 85 23 23 52 35 85 35 33 0 62-12 85-35 23-23 35-52 35-85 0-51-24-87-72-110 0 0 0-378 0-378 0 0 0 0 0 0m-116 488c0-19 7-35 20-48 13-13 29-20 48-20 19 0 35 7 49 20 14 13 21 29 21 48 0 20-7 37-21 50-14 13-30 20-49 20-19 0-35-7-48-20-13-13-20-30-20-50 0 0 0 0 0 0m68-668c19 0 35 7 49 20 14 13 21 29 21 48 0 20-7 37-21 50-14 13-30 20-49 20-19 0-35-7-48-20-13-13-20-30-20-50 0-19 7-35 20-48 13-13 29-20 48-20 0 0 0 0 0 0" horiz-adv-x="240" />

<glyph glyph-name="flow-parallel" unicode="&#xe86a;" d="M240 650c0-51-24-87-72-110 0 0 0-378 0-378 48-23 72-60 72-112 0-33-12-62-35-85-23-23-52-35-85-35-33 0-62 12-85 35-23 23-35 52-35 85 0 52 24 89 72 112 0 0 0 378 0 378-48 23-72 59-72 110 0 33 12 62 35 85 23 23 52 35 85 35 33 0 62-12 85-35 23-23 35-52 35-85 0 0 0 0 0 0m-50-600c0 20-7 37-21 50-14 13-30 20-49 20-19 0-35-7-48-20-13-13-20-30-20-50 0-19 7-35 20-48 13-13 29-20 48-20 19 0 35 7 49 20 14 13 21 29 21 48 0 0 0 0 0 0m-70 532c19 0 35 7 49 20 14 13 21 29 21 48 0 20-7 37-21 50-14 13-30 20-49 20-19 0-35-7-48-20-13-13-20-30-20-50 0-19 7-35 20-48 13-13 29-20 48-20 0 0 0 0 0 0m448-420c48-23 72-60 72-112 0-33-12-62-35-85-23-23-52-35-85-35-33 0-62 12-85 35-23 23-35 52-35 85 0 52 24 89 72 112 0 0 0 378 0 378-48 23-72 59-72 110 0 33 12 62 35 85 23 23 52 35 85 35 33 0 62-12 85-35 23-23 35-52 35-85 0-51-24-87-72-110 0 0 0-378 0-378 0 0 0 0 0 0m-116 488c0-19 7-35 20-48 13-13 29-20 48-20 19 0 35 7 49 20 14 13 21 29 21 48 0 20-7 37-21 50-14 13-30 20-49 20-19 0-35-7-48-20-13-13-20-30-20-50 0 0 0 0 0 0m68-668c19 0 35 7 49 20 14 13 21 29 21 48 0 20-7 37-21 50-14 13-30 20-49 20-19 0-35-7-48-20-13-13-20-30-20-50 0-19 7-35 20-48 13-13 29-20 48-20 0 0 0 0 0 0" horiz-adv-x="640" />

<glyph glyph-name="flow-tree" unicode="&#xe86b;" d="M868 112c48-23 72-60 72-112 0-33-12-62-35-85-23-23-52-35-85-35-33 0-62 12-85 35-23 23-35 52-35 85 0 52 24 89 72 112 0 0 0 114 0 114 0 52-25 78-76 78 0 0-100 0-100 0-29 0-55 4-78 12 0 0 0-204 0-204 48-23 72-60 72-112 0-33-12-62-35-85-23-23-52-35-85-35-33 0-62 12-85 35-23 23-35 52-35 85 0 52 24 89 72 112 0 0 0 204 0 204-20-8-45-12-76-12 0 0-100 0-100 0-23 0-40-6-53-19-13-13-20-24-22-33-2-9-3-18-3-26 0 0 0-114 0-114 48-23 72-60 72-112 0-33-12-62-35-85-23-23-52-35-85-35-33 0-62 12-85 35-23 23-35 52-35 85 0 52 24 89 72 112 0 0 0 114 0 114 0 43 14 82 43 118 29 36 72 54 131 54 0 0 100 0 100 0 51 0 76 17 76 52 0 0 0 140 0 140-48 23-72 59-72 110 0 33 12 62 35 85 23 23 52 35 85 35 33 0 62-12 85-35 23-23 35-52 35-85 0-51-24-87-72-110 0 0 0-140 0-140 0-35 26-52 78-52 0 0 100 0 100 0 57 0 100-18 129-54 29-36 43-75 43-118 0 0 0-114 0-114 0 0 0 0 0 0m-678-112c0 20-7 37-21 50-14 13-30 20-49 20-19 0-35-7-48-20-13-13-20-30-20-50 0-19 7-35 20-48 13-13 29-20 48-20 19 0 35 7 49 20 14 13 21 29 21 48 0 0 0 0 0 0m212 700c0-19 7-35 20-48 13-13 29-20 48-20 19 0 35 7 49 20 14 13 21 29 21 48 0 20-7 37-21 50-14 13-30 20-49 20-19 0-35-7-48-20-13-13-20-30-20-50 0 0 0 0 0 0m138-700c0 20-7 37-21 50-14 13-30 20-49 20-19 0-35-7-48-20-13-13-20-30-20-50 0-19 7-35 20-48 13-13 29-20 48-20 19 0 35 7 49 20 14 13 21 29 21 48 0 0 0 0 0 0m280-68c19 0 35 7 49 20 14 13 21 29 21 48 0 20-7 37-21 50-14 13-30 20-49 20-19 0-35-7-48-20-13-13-20-30-20-50 0-19 7-35 20-48 13-13 29-20 48-20 0 0 0 0 0 0" horiz-adv-x="940" />

<glyph glyph-name="forward" unicode="&#xe86c;" d="M540 252c-140 0-251-15-332-45-81-30-151-96-208-197 3 13 7 31 13 53 6 22 23 61 50 117 27 56 59 105 96 148 37 43 89 82 156 117 67 35 142 53 225 53 0 0 0 192 0 192 0 0 360-322 360-322 0 0-360-334-360-334 0 0 0 218 0 218 0 0 0 0 0 0" horiz-adv-x="900" />

<glyph glyph-name="folder" unicode="&#xe86d;" d="M954 500c21 0 35-4 40-12 5-8 7-20 6-36 0 0-42-452-42-452-1-16-5-28-12-37-7-9-21-13-42-13 0 0-806 0-806 0-35 0-53 17-56 50 0 0-42 452-42 452-1 16 1 28 6 36 5 8 19 12 40 12 0 0 908 0 908 0 0 0 0 0 0 0m-34 110c0 0 10-40 10-40 0 0-846 0-846 0 0 0 14 132 14 132 3 13 9 25 20 34 11 9 23 14 36 14 0 0 164 0 164 0 35 0 63-11 86-34 0 0 30-30 30-30 21-24 50-36 86-36 0 0 340 0 340 0 13 0 26-4 38-12 12-8 19-17 22-28 0 0 0 0 0 0" horiz-adv-x="1000" />

<glyph glyph-name="gauge" unicode="&#xe86e;" d="M406 178c23 37 94 132 214 284 120 152 185 225 194 220 8-4-24-97-96-278-72-181-118-290-138-326-33-57-79-69-136-36-57 33-70 79-38 136 0 0 0 0 0 0m94 380c-112 0-207-42-284-127-77-85-116-188-116-311 0-20 1-35 2-46 1-15-3-27-12-37-9-10-21-16-34-17-13-1-25 3-36 12-11 9-17 21-18 34 0 5 0 14-1 26-1 12-1 21-1 28 0 151 48 278 145 382 97 104 215 156 355 156 48 0 93-6 134-18 0 0-70-86-70-86-27 3-48 4-64 4 0 0 0 0 0 0m362-62c92-103 138-228 138-376 0-25-1-44-2-56-1-13-7-24-16-33-9-9-21-13-34-13 0 0-4 0-4 0-15 3-26 9-35 20-9 11-12 23-11 36 1 9 2 25 2 46 0 100-27 189-80 268 4 9 11 26 20 51 9 25 17 44 22 57 0 0 0 0 0 0" horiz-adv-x="1000" />

<glyph glyph-name="github-circled" unicode="&#xe86f;" d="M480 354c11 0 25 1 42 2 17 1 31 2 41 2 10 0 21-1 32-4 11-3 21-7 29-14 17-17 26-37 26-60 0-43-14-71-43-84-29-13-71-20-127-20-56 0-98 7-127 20-29 13-43 41-43 84 0 23 9 43 26 60 8 7 18 11 29 14 11 3 22 4 32 4 10 0 24-1 41-2 17-1 31-2 42-2 0 0 0 0 0 0 0 0 0 0 0 0m-80-128c9 0 17 5 23 14 6 9 9 20 9 32 0 31-11 46-32 46-21 0-32-15-32-46 0-12 3-23 9-32 6-9 14-14 23-14 0 0 0 0 0 0m160 0c9 0 17 5 24 14 7 9 10 20 10 32 0 13-3 24-10 33-7 9-15 13-24 13-21 0-32-15-32-46 0-12 3-23 9-32 6-9 14-14 23-14 0 0 0 0 0 0m-80 604c133 0 247-47 340-140 93-93 140-207 140-340 0-132-47-245-140-339-93-94-207-141-340-141-132 0-245 47-339 141-94 94-141 207-141 339 0 133 47 247 141 340 94 93 207 140 339 140 0 0 0 0 0 0m44-676c125 0 188 61 188 184 0 37-13 70-38 98 3 3 3 16 1 41-2 25-8 48-17 71-29-4-67-21-114-52-13 4-35 6-64 6-27 0-48-2-64-6-20 13-40 24-59 33-19 9-33 14-41 17 0 0-14 2-14 2-9-23-15-46-17-71-2-25-2-38 1-41-25-28-38-61-38-98 0-123 63-184 188-184 0 0 44 0 44 0 0 0 44 0 44 0 0 0 0 0 0 0" horiz-adv-x="960" />

<glyph glyph-name="github" unicode="&#xe870;" d="M620 286c17 0 32-9 45-26 13-17 19-39 19-64 0-25-6-47-19-64-13-17-28-26-45-26-19 0-34 9-47 26-13 17-19 39-19 64 0 25 6 47 19 64 13 17 28 26 47 26 0 0 0 0 0 0m226 234c49-53 74-118 74-194 0-49-6-94-17-133-11-39-26-71-43-96-17-25-39-46-64-65-25-19-49-32-70-41-21-9-46-15-73-20-27-5-48-7-62-8-14-1-29-1-45-1-4 0-16 0-36-1-20-1-37-1-50-1-13 0-30 0-50 1-20 1-32 1-36 1-16 0-31 0-45 1-14 1-35 3-62 8-27 5-52 11-73 20-21 9-45 22-70 41-25 19-47 40-64 65-17 25-32 57-43 96-11 39-17 84-17 133 0 76 25 141 74 194-5 3-6 29-1 80 5 51 16 97 33 140 61-7 137-41 228-104 31 8 73 12 126 12 56 0 98-4 126-12 41 28 81 51 119 68 38 17 66 27 83 30 0 0 26 6 26 6 17-43 28-89 33-140 5-51 4-77-1-80 0 0 0 0 0 0m-384-514c111 0 194 13 251 40 57 27 85 81 85 164 0 48-18 88-54 120-19 17-40 28-65 32-25 4-62 4-113 0-51-4-85-6-104-6 0 0-2 0-2 0 0 0-2 0-2 0-21 0-49 1-83 4-34 3-61 4-80 5-19 1-40-2-63-7-23-5-41-15-56-28-35-31-52-71-52-120 0-83 28-137 84-164 56-27 139-40 250-40 0 0 4 0 4 0 0 0 0 0 0 0m-160 280c17 0 32-9 45-26 13-17 19-39 19-64 0-25-6-47-19-64-13-17-28-26-45-26-19 0-34 9-47 26-13 17-19 39-19 64 0 25 6 47 19 64 13 17 28 26 47 26 0 0 0 0 0 0" horiz-adv-x="920" />

<glyph glyph-name="globe" unicode="&#xe871;" d="M480 830c133 0 247-47 340-141 93-94 140-207 140-339 0-133-47-247-140-340-93-93-207-140-340-140-132 0-245 47-339 140-94 93-141 207-141 340 0 132 47 245 141 339 94 94 207 141 339 141 0 0 0 0 0 0m410-480c0 88-26 168-78 239-52 71-119 121-202 149-12-16-17-27-16-32 3-25 9-42 18-51 9-9 19-11 30-7 0 0 32 12 32 12 0 0 7 1 20 2 15-16 15-32 0-47-15-15-30-34-45-56-15-22-16-48-1-77 23-43 55-64 96-64 19-1 33-13 43-36 10-23 16-45 17-66 7-53 2-100-14-140-15-29-10-55 14-76 57 75 86 158 86 250 0 0 0 0 0 0m-466 404c-75-9-141-37-199-84-58-47-100-105-127-174 4 0 11-1 22-2 11-1 20-2 28-3 8-1 17-2 26-4 9-2 17-5 24-8 7-3 11-8 12-13 3-8-2-23-14-45-12-22-18-42-18-61 0-20 13-39 38-56 25-17 38-33 38-46 0-19 3-41 8-68 5-27 8-41 8-44 0-8 12-26 36-54 24-28 41-42 52-42 7 0 10 7 11 22 1 15 0 33-2 54-2 21-3 35-3 40 0 21 5 46 14 74 8 28 28 51 59 70 31 19 50 34 55 46 11 23 14 43 9 61-5 18-10 32-17 43-7 11-18 20-34 28-16 8-30 14-41 17-11 3-24 6-37 9-13 3-21 4-22 4-11 4-25 6-42 7-17 1-29 0-36-3-7-3-16 1-27 11-11 10-17 20-17 29 0 7 5 16 15 27 10 11 22 24 35 37 13 13 23 23 28 30 5 9 11 16 17 21 6 5 13 10 22 16 9 6 18 13 27 21 3 3 11 8 25 17 14 9 23 16 27 23 0 0 0 0 0 0m-72-794c44-13 87-20 128-20 85 0 161 23 226 68-17 29-57 41-118 34-16-1-38-7-65-17-27-10-43-16-47-17-49-11-75-16-76-16-8-1-17-6-26-14-9-8-17-14-22-18 0 0 0 0 0 0" horiz-adv-x="960" />

<glyph glyph-name="google-circles" unicode="&#xe872;" d="M556 810c101 0 187-35 258-106 71-71 106-156 106-256 0-95-32-177-96-247-64-70-143-108-236-115-23-57-60-104-112-141-52-37-109-55-172-55-84 0-156 30-215 90-59 60-89 131-89 214 0 64 18 122 54 173 36 51 83 88 140 111 8 93 47 172 116 236 69 64 151 96 246 96 0 0 0 0 0 0m-252-818c79 0 137 33 174 100-69 15-129 47-179 97-50 50-82 110-97 179-67-37-100-95-100-174 0-56 20-104 59-143 39-39 87-59 143-59 0 0 0 0 0 0m4 404c11-51 34-94 70-129 36-35 79-58 128-69-1 53-21 99-60 138-39 39-85 59-138 60 0 0 0 0 0 0m300-198c59 12 107 41 145 88 38 47 57 101 57 162 0 71-25 131-75 180-50 49-110 74-179 74-60 0-114-19-161-58-47-39-76-87-87-146 83-1 153-31 211-89 58-58 88-128 89-211 0 0 0 0 0 0m-504 398c-28 0-52 10-73 30-21 20-31 44-31 72 0 29 10 54 31 74 21 20 45 30 73 30 29 0 54-10 74-30 20-20 30-45 30-74 0-28-10-52-30-72-20-20-45-30-74-30 0 0 0 0 0 0m0 160c-16 0-29-6-40-17-11-11-16-25-16-41 0-15 5-28 16-39 11-11 24-17 40-17 16 0 30 6 41 17 11 11 17 24 17 39 0 16-6 30-17 41-11 11-25 17-41 17 0 0 0 0 0 0" horiz-adv-x="920" />

<glyph glyph-name="gplus-circled" unicode="&#xe873;" d="M434 486c5-20 5-39-1-57-6-18-16-29-31-33 0 0-10 0-10 0-28 0-48 20-60 60-4 20-3 38 2 54 7 16 17 26 30 30 1 1 5 2 10 2 29 0 49-19 60-56 0 0 0 0 0 0m46 344c133 0 247-47 340-140 93-93 140-207 140-340 0-132-47-245-140-339-93-94-207-141-340-141-132 0-245 47-339 141-94 94-141 207-141 339 0 133 47 247 141 340 94 93 207 140 339 140 0 0 0 0 0 0m-28-686c40 20 60 53 60 98 0 29-17 60-52 92-17 15-26 25-26 32 0 8 7 17 20 26 23 23 34 49 34 80 0 39-12 65-36 78 1 1 5 2 10 3 5 1 9 1 10 1 27 3 40 8 40 16 0 0 0 4 0 4 0 0-116 0-116 0-8 0-19-1-33-4-14-3-32-13-53-32-21-19-32-44-32-76 0-37 13-64 38-80 15-11 33-16 56-16 0 0 6 0 6 0-3-16 3-33 16-50 0 0-2 0-2 0-92 0-138-31-138-94 0-27 9-48 28-63 19-15 35-24 49-27 14-3 27-4 39-4 0 0 4 0 4 0 0 0 4 0 4 0 27 0 51 5 74 16 0 0 0 0 0 0m254 208c0 0 0 48 0 48 0 0-76 0-76 0 0 0 0 76 0 76 0 0-48 0-48 0 0 0 0-76 0-76 0 0-76 0-76 0 0 0 0-48 0-48 0 0 76 0 76 0 0 0 0-76 0-76 0 0 48 0 48 0 0 0 0 76 0 76 0 0 76 0 76 0 0 0 0 0 0 0m-314-58c21 0 39-6 52-17 13-11 21-26 22-43 1-17-5-32-19-44-14-12-32-19-55-20-23-3-43 1-60 11-17 10-27 24-28 41 0 17 7 33 22 48 13 13 33 21 58 24 0 0 8 0 8 0 0 0 0 0 0 0" horiz-adv-x="960" />

<glyph glyph-name="gplus" unicode="&#xe874;" d="M48 572c0 39 8 73 25 102 17 29 35 51 56 65 21 14 44 25 69 34 25 9 44 14 56 15 12 1 21 2 26 2 0 0 230 0 230 0 0 0 0-4 0-4 0-15-26-27-78-36-19 0-31-2-38-6 27-13 45-32 54-56 9-24 14-56 14-96 0-68-23-121-68-158-25-25-38-43-38-54 0-12 17-33 50-64 69-60 104-119 104-178 0-93-39-158-116-194-45-23-95-34-150-34 0 0-4 0-4 0 0 0-4 2-4 2-1-1-3-2-4-2-16 0-34 2-54 5-20 3-45 10-75 21-30 11-55 30-74 57-19 27-29 62-29 103 0 40 11 74 32 101 21 27 49 46 83 57 34 11 63 18 88 22 25 4 48 6 71 6 0 0 2 0 2 0-11 15-19 30-24 47-5 17-8 30-8 39 0 0 2 14 2 14 0 0-14 0-14 0-43 0-79 10-110 30-49 29-74 83-74 160 0 0 0 0 0 0m370-452c-3 35-17 63-43 84-26 21-60 32-103 32 0 0-16 0-16 0-43-1-81-17-114-46-31-28-45-59-42-94 3-35 20-61 53-80 33-19 72-27 119-24 45 3 82 16 109 40 27 24 40 53 37 88 0 0 0 0 0 0m-60 500c-20 72-61 108-122 108-8 0-15-1-20-2-27-8-46-29-58-62-11-33-11-69-2-106 9-35 25-63 47-85 22-22 46-33 71-33 8 0 14 1 18 2 28 8 49 30 63 65 14 35 15 73 3 113 0 0 0 0 0 0m388-174c0 0 150 0 150 0 0 0 0-94 0-94 0 0-150 0-150 0 0 0 0-150 0-150 0 0-94 0-94 0 0 0 0 150 0 150 0 0-150 0-150 0 0 0 0 94 0 94 0 0 150 0 150 0 0 0 0 150 0 150 0 0 94 0 94 0 0 0 0-150 0-150 0 0 0 0 0 0" horiz-adv-x="896" />

<glyph glyph-name="graduation-cap" unicode="&#xe875;" d="M166 238c0 0 334-168 334-168 0 0 276 136 276 136-3-15-5-30-8-47-3-17-5-28-6-35-1-7-5-14-11-23-6-9-14-16-24-23-10-7-25-14-45-22-27-12-53-26-80-41-27-15-48-27-63-34-15-7-28-11-39-11-11 0-24 4-40 13-16 9-37 21-64 37-27 16-53 29-80 40-48 21-82 44-103 69-21 25-36 61-47 109 0 0 0 0 0 0m810 246c16-9 24-20 24-33 0-13-8-24-24-33 0 0-78-44-78-44 0 0-308 102-308 102-15 24-45 36-90 36-27 0-49-5-67-16-18-11-27-24-27-40 0-16 9-29 27-40 18-11 40-16 67-16 17 0 29 1 36 4 0 0 292-68 292-68 0 0-268-152-268-152-40-21-80-21-120 0 0 0-416 234-416 234-16 9-24 20-24 33 0 13 8 24 24 33 0 0 416 234 416 234 40 21 80 21 120 0 0 0 416-234 416-234m-128-442c12 77 16 138 13 182-3 44-10 74-19 90 0 0-14 22-14 22 0 0 70 38 70 38 4-5 8-15 12-28 4-13 10-47 17-101 7-54 5-120-7-197-3-17-10-27-22-30-12-3-24-1-35 5-11 6-16 12-15 19 0 0 0 0 0 0" horiz-adv-x="1000" />

<glyph glyph-name="heart-empty" unicode="&#xe876;" d="M790 642c47-43 70-95 70-156 0-61-23-113-70-156 0 0-360-330-360-330 0 0-360 330-360 330-47 43-70 95-70 156 0 61 23 113 70 156 43 39 93 58 152 58 59 0 109-19 150-58 0 0 58-52 58-52 0 0 56 52 56 52 43 39 93 58 152 58 59 0 109-19 152-58 0 0 0 0 0 0m-54-260c28 27 42 61 42 104 0 44-13 77-38 100-25 25-59 38-102 38-35 0-69-16-104-48 0 0-104-92-104-92 0 0-106 92-106 92-32 32-66 48-102 48-43 0-77-13-104-38-25-24-38-57-38-100 0-44 15-79 44-104 0 0 306-286 306-286 0 0 306 286 306 286" horiz-adv-x="860" />

<glyph glyph-name="heart" unicode="&#xe877;" d="M790 644c47-43 70-95 70-156 0-61-23-114-70-158 0 0-360-330-360-330 0 0-360 330-360 330-47 44-70 97-70 158 0 61 23 113 70 156 41 39 92 58 151 58 59 0 110-19 153-58 0 0 56-52 56-52 0 0 58 52 58 52 41 39 91 58 150 58 59 0 109-19 152-58 0 0 0 0 0 0" horiz-adv-x="860" />

<glyph glyph-name="help-circled" unicode="&#xe878;" d="M454 810c127 1 235-42 326-130 91-88 137-195 140-322 1-127-42-236-131-327-89-91-196-138-323-141-127-1-236 42-327 131-91 89-138 196-139 323-3 127 41 236 130 327 89 91 197 138 324 139 0 0 0 0 0 0m-2-740c20 0 36 6 49 19 13 13 19 28 19 47 1 20-4 36-17 49-13 13-29 19-49 19 0 0-2 0-2 0-19 0-34-6-47-18-13-12-20-27-21-46 0-20 6-36 19-49 13-13 28-20 47-21 0 0 2 0 2 0 0 0 0 0 0 0m166 328c17 23 26 49 26 78 0 52-18 91-54 116-35 25-79 38-134 38-43 0-77-9-104-26-45-28-69-77-72-146 0 0 0-4 0-4 0 0 110 0 110 0 0 0 0 4 0 4 0 17 5 35 16 54 11 16 29 24 54 24 27 0 44-7 52-20 11-13 16-28 16-44 0-12-5-25-16-40-5-8-12-15-20-20 0 0-6-4-6-4-4-3-9-6-16-11-7-5-13-10-20-15-7-5-14-11-21-17-7-6-13-12-17-17-9-13-15-39-18-78 0 0 0-8 0-8 0 0 108 0 108 0 0 0 0 4 0 4 0 8 1 17 4 28 4 13 13 25 28 36 0 0 28 18 28 18 31 23 49 39 56 50 0 0 0 0 0 0" horiz-adv-x="920" />

<glyph glyph-name="help" unicode="&#xe879;" d="M494 740c57-41 86-103 86-184 0-43-14-84-42-124-8-13-37-40-88-80 0 0-46-30-46-30-27-23-43-43-48-60-4-11-7-25-8-44 0-9-5-14-16-14 0 0-128 0-128 0-11 0-16 4-16 12 3 65 12 107 28 124 11 15 27 31 48 48 21 17 40 31 56 42 0 0 24 14 24 14 15 11 26 22 34 34 19 29 28 53 28 70 0 27-9 53-26 78-19 24-49 36-92 36-45 0-77-15-94-44-19-28-28-59-28-92 0 0-166 0-166 0 4 108 42 185 114 232 47 28 102 42 166 42 87 0 158-20 214-60 0 0 0 0 0 0m-216-636c29 0 54-10 73-30 19-20 28-45 27-74-1-31-12-55-32-73-20-18-45-26-74-25-29 0-54 10-73 29-19 19-28 44-27 75 1 31 12 55 32 73 20 18 45 26 74 25 0 0 0 0 0 0" horiz-adv-x="580" />

<glyph glyph-name="hourglass" unicode="&#xe87a;" d="M560 622c0-29-16-61-48-96-32-35-64-68-97-99-33-31-49-57-49-77 0-20 16-45 49-76 33-31 65-63 97-97 32-34 48-66 48-97 0 0 0-118 0-118 0-23-29-47-86-73-57-26-122-39-194-39-72 0-137 13-194 39-57 26-86 50-86 73 0 0 0 118 0 118 0 31 16 63 48 97 32 34 64 66 97 97 33 31 49 56 49 76 0 20-16 46-49 77-33 31-65 64-97 99-32 35-48 67-48 96 0 0 0 118 0 118 0 21 29 45 87 71 58 26 122 39 193 39 71 0 135-13 193-39 58-26 87-50 87-71 0 0 0-118 0-118 0 0 0 0 0 0m-482 112c0 0-18-14-18-14-3-5-1-10 4-14 61-35 133-52 216-52 88 0 161 17 220 50 9 7 4 17-16 30-64 36-131 54-202 54-80 0-148-18-204-54 0 0 0 0 0 0m228-384c0 12 1 23 4 33 3 10 9 21 18 33 9 12 16 20 20 25 4 5 14 15 31 31 17 16 26 25 29 28 61 61 92 102 92 122 0 0 2 50 2 50-67-36-141-54-222-54-81 0-155 18-222 54 0 0 4-50 4-50 0-21 30-62 90-122 4-4 11-11 22-21 11-10 18-17 23-22 0 0 19-19 19-19 0 0 6-7 17-21 11-14 15-21 11-20-4 1-1-7 9-23 10-16 11-24 3-24 0-7 0-13-1-19-1-6-3-12-6-18-3-6-6-11-8-16-2-5-6-10-11-17 0 0-12-15-12-15 0 0-5-5-15-16-10-11-15-16-16-15-1 1-7-5-18-16-11-11-17-17-17-16-60-60-90-101-90-122 0 0 0-66 0-66 5 3 27 10 66 23 39 13 69 27 92 43 23 16 34 35 34 58 0 20 9 30 26 30 17 0 26-10 26-30 0-23 11-42 33-58 22-16 53-30 94-43 41-13 63-20 67-23 0 0 0 66 0 66 0 20-31 61-92 122-3 3-10 9-21 20-11 11-19 18-22 21-3 3-9 10-18 19-9 9-15 17-18 22-3 5-7 12-12 20-5 8-8 16-9 23-1 7-2 15-2 23 0 0 0 0 0 0" horiz-adv-x="560" />

<glyph glyph-name="home" unicode="&#xe87b;" d="M888 336c11-11 15-20 11-27-3-7-12-11-27-11 0 0-84 0-84 0 0 0 0-310 0-310 0-9 0-16-1-21 0-5-3-9-8-13-4-4-12-6-23-6 0 0-204 0-204 0 0 0 0 310 0 310 0 0-204 0-204 0 0 0 0-310 0-310 0 0-194 0-194 0-18 0-30 3-35 10-4 7-7 17-7 30 0 0 0 310 0 310 0 0-84 0-84 0-14 0-23 4-27 11-3 7 1 16 11 27 0 0 400 402 400 402 11 11 24 16 38 16 15 0 28-5 38-16 0 0 400-402 400-402" horiz-adv-x="900" />

<glyph glyph-name="inbox" unicode="&#xe87c;" d="M967 398c27-28 37-52 30-72 0 0-28-154-28-154-3-13-10-24-22-33-12-9-25-13-40-13 0 0-816 0-816 0-15 0-28 4-40 13-12 9-19 20-22 33 0 0-28 154-28 154-5 21 5 45 32 72 5 7 17 19 36 38 19 19 41 41 68 67 27 26 44 43 52 51 15 15 32 22 52 22 0 0 258 0 258 0 0 0 258 0 258 0 20 0 37-7 52-22 11-11 28-28 53-52 25-24 47-46 67-65 20-19 33-32 38-39 0 0 0 0 0 0m-266-32c0 0 178 0 178 0 0 0-102 114-102 114 0 0-556 0-556 0 0 0-102-114-102-114 0 0 178 0 178 0 5 0 9-3 12-8 0 0 40-100 40-100 0 0 300 0 300 0 0 0 40 100 40 100 3 5 7 8 12 8 0 0 0 0 0 0" horiz-adv-x="997" />

<glyph glyph-name="infinity" unicode="&#xe87d;" d="M796 570c56 0 104-18 144-53 40-35 60-91 60-167 0-75-20-130-60-166-40-36-88-54-144-54-52 0-104 13-157 40-53 27-99 62-139 106-39-44-84-79-137-106-53-27-105-40-157-40-57 0-106 18-146 54-40 36-60 91-60 166 0 76 20 132 60 167 40 35 89 53 146 53 52 0 104-13 157-39 53-26 98-61 137-105 39 44 85 79 138 105 53 26 106 39 158 39 0 0 0 0 0 0m-590-352c40 0 82 12 127 37 45 25 82 56 113 95-31 39-68 70-112 95-44 25-87 37-128 37-76 0-114-44-114-132 0-88 38-132 114-132 0 0 0 0 0 0m590 0c76 0 114 44 114 132 0 88-38 132-114 132-41 0-84-12-129-37-45-25-82-56-111-95 29-39 66-70 111-95 45-25 88-37 129-37 0 0 0 0 0 0" horiz-adv-x="1000" />

<glyph glyph-name="info-circled" unicode="&#xe87e;" d="M454 810c127 1 235-42 326-130 91-88 137-195 140-322 1-127-42-236-131-327-89-91-196-138-323-141-127-1-236 42-327 131-91 89-138 196-139 323-3 127 41 236 130 327 89 91 197 138 324 139 0 0 0 0 0 0m52-152c-28 0-50-8-65-24-15-16-23-33-23-50-1-19 4-33 15-44 11-11 28-16 49-16 25 0 46 7 61 22 15 15 23 33 23 54 0 39-20 58-60 58 0 0 0 0 0 0m-120-594c20 0 48 9 84 26 36 17 71 43 106 78 0 0-18 24-18 24-32-24-56-36-72-36-9 0-11 13-4 38 0 0 42 160 42 160 17 64 10 96-22 96-20 0-50-10-89-29-39-19-78-44-115-75 0 0 16-26 16-26 35 23 59 34 74 34 8 0 8-11 0-34 0 0-36-152-36-152-17-69-6-104 34-104 0 0 0 0 0 0" horiz-adv-x="920" />

<glyph glyph-name="info" unicode="&#xe87f;" d="M352 850c32 0 57-9 74-27 17-18 26-41 26-69 0-33-13-63-39-88-26-25-58-38-95-38-32 0-57 9-74 26-17 17-25 41-24 72 0 31 12 59 35 85 23 26 56 39 97 39 0 0 0 0 0 0m-206-1000c-67 0-85 59-54 178 0 0 60 254 60 254 9 37 9 56 0 56-8 0-26-6-54-18-28-12-52-25-72-38 0 0-26 44-26 44 60 52 123 94 189 126 66 32 116 48 151 48 52 0 64-54 36-162 0 0-70-266-70-266-11-43-9-64 6-64 29 0 69 20 118 60 0 0 30-40 30-40-56-57-114-101-175-132-61-31-107-46-139-46 0 0 0 0 0 0" horiz-adv-x="460" />

<glyph glyph-name="instagrem" unicode="&#xe880;" d="M690 350c0 17-2 34-6 50 0 0 176 0 176 0 0 0 0-344 0-344 0-37-13-69-39-96-26-27-58-40-95-40 0 0-592 0-592 0-37 0-69 13-95 40-26 27-39 59-39 96 0 0 0 344 0 344 0 0 174 0 174 0-3-21-4-38-4-50 0-71 25-132 76-183 51-51 112-77 184-77 71 0 132 26 183 77 51 51 77 112 77 183 0 0 0 0 0 0m36 430c37 0 69-13 95-39 26-26 39-58 39-95 0 0 0-146 0-146 0 0-218 0-218 0-52 73-123 110-212 110-92 0-163-37-212-110 0 0-218 0-218 0 0 0 0 146 0 146 0 37 13 69 39 95 26 26 58 39 95 39 0 0 592 0 592 0 0 0 0 0 0 0m64-166c0 0 0 72 0 72 0 16-8 24-24 24 0 0-72 0-72 0-16 0-24-8-24-24 0 0 0-72 0-72 0-5 2-11 7-16 5-5 10-8 17-8 0 0 72 0 72 0 16 0 24 8 24 24 0 0 0 0 0 0m-200-264c0-44-16-82-47-113-31-31-69-47-113-47-44 0-82 16-113 47-31 31-47 69-47 113 0 45 16 83 47 114 31 31 69 46 113 46 44 0 82-15 113-46 31-31 47-69 47-114 0 0 0 0 0 0" horiz-adv-x="860" />

<glyph glyph-name="install" unicode="&#xe881;" d="M884 306c16-35 21-67 14-96 0 0-34-184-34-184-1-13-7-25-19-35-11-10-24-15-39-15 0 0-712 0-712 0-14 0-27 5-39 15-11 10-17 22-19 35 0 0-34 184-34 184-5 33 0 65 14 96 0 0 158 374 158 374 15 31 39 46 72 46 0 0 104 0 104 0 0 0-20-204-20-204 0 0-134 0-134 0 0 0 254-210 254-210 0 0 256 210 256 210 0 0-136 0-136 0 0 0-18 204-18 204 0 0 102 0 102 0 34 0 58-15 74-46 0 0 156-374 156-374m-68-132c2 15-2 27-10 38-8 11-19 16-34 16 0 0-644 0-644 0-14 0-26-5-34-16-8-11-11-23-10-38 0 0 14-74 14-74 2-15 8-27 19-37 12-10 24-15 37-15 0 0 592 0 592 0 15 0 28 5 39 15 12 10 18 22 19 37 0 0 12 74 12 74" horiz-adv-x="901" />

<glyph glyph-name="key" unicode="&#xe882;" d="M773 612c13-77 4-149-28-215-32-66-82-105-150-117-44-8-87-9-130-2 0 0-118-194-118-194 0 0-70-12-70-12 0 0-104-166-104-166-9-19-25-29-46-32 0 0-76-14-76-14-8-3-15-1-22 4-7 5-11 13-12 22 0 0-16 98-16 98-5 20-1 39 12 56 0 0 258 386 258 386-16 33-29 73-38 120-12 71 6 133 53 187 47 54 109 88 185 101 71 13 136-2 195-45 59-43 95-102 107-177 0 0 0 0 0 0m-126-76c20 29 27 62 21 97-6 35-23 63-51 83-28 21-59 29-92 22-33-7-60-25-80-54-5-8-9-16-12-23-3-7-3-14-1-20 2-6 4-11 5-16 1-5 6-10 13-17 7-7 13-12 18-15 5-3 12-9 22-16 10-7 18-13 23-17 4-3 11-8 22-16 11-8 18-13 23-16 5-3 11-7 19-12 8-5 14-8 19-8 5 0 10 0 17 1 7 1 13 3 18 8 5 5 11 11 16 19 0 0 0 0 0 0" horiz-adv-x="779" />

<glyph glyph-name="keyboard" unicode="&#xe883;" d="M930 650c19 0 35-7 49-21 14-14 21-30 21-49 0 0 0-460 0-460 0-20-7-37-21-50-14-13-30-20-49-20 0 0-860 0-860 0-19 0-35 7-49 20-14 13-21 30-21 50 0 0 0 460 0 460 0 19 7 35 21 49 14 14 30 21 49 21 0 0 860 0 860 0 0 0 0 0 0 0m-380-100c0 0 0-100 0-100 0 0 100 0 100 0 0 0 0 100 0 100 0 0-100 0-100 0 0 0 0 0 0 0m150-150c0 0-100 0-100 0 0 0 0-100 0-100 0 0 100 0 100 0 0 0 0 100 0 100 0 0 0 0 0 0m-300 150c0 0 0-100 0-100 0 0 100 0 100 0 0 0 0 100 0 100 0 0-100 0-100 0 0 0 0 0 0 0m150-150c0 0-100 0-100 0 0 0 0-100 0-100 0 0 100 0 100 0 0 0 0 100 0 100 0 0 0 0 0 0m-300 150c0 0 0-100 0-100 0 0 100 0 100 0 0 0 0 100 0 100 0 0-100 0-100 0 0 0 0 0 0 0m150-150c0 0-100 0-100 0 0 0 0-100 0-100 0 0 100 0 100 0 0 0 0 100 0 100 0 0 0 0 0 0m-300 150c0 0 0-100 0-100 0 0 100 0 100 0 0 0 0 100 0 100 0 0-100 0-100 0 0 0 0 0 0 0m150-150c0 0-100 0-100 0 0 0 0-100 0-100 0 0 100 0 100 0 0 0 0 100 0 100 0 0 0 0 0 0m-50-250c0 0 0 100 0 100 0 0-100 0-100 0 0 0 0-100 0-100 0 0 100 0 100 0 0 0 0 0 0 0m550 0c0 0 0 100 0 100 0 0-500 0-500 0 0 0 0-100 0-100 0 0 500 0 500 0 0 0 0 0 0 0m150 0c0 0 0 100 0 100 0 0-100 0-100 0 0 0 0-100 0-100 0 0 100 0 100 0 0 0 0 0 0 0m-150 150c0 0 100 0 100 0 0 0 0 100 0 100 0 0-100 0-100 0 0 0 0-100 0-100 0 0 0 0 0 0m150 150c0 0 0 100 0 100 0 0-200 0-200 0 0 0 0-100 0-100 0 0 200 0 200 0 0 0 0 0 0 0" horiz-adv-x="1000" />

<glyph glyph-name="lamp" unicode="&#xe884;" d="M209-110c0 0 0 104 0 104 0 0 282 0 282 0 0 0 0-104 0-104-47-28-94-41-142-40-47-1-93 12-140 40 0 0 0 0 0 0m276 164c0 0-270 0-270 0 0 48-12 95-36 140-24 45-50 83-78 113-28 30-53 67-74 112-21 45-30 91-26 139 5 80 37 149 94 206 57 57 142 86 254 86 113 0 198-29 255-86 57-57 88-126 95-206 3-40-3-78-16-113-13-35-31-67-52-96-21-29-43-57-65-85-22-28-41-60-57-96-16-36-24-74-24-114 0 0 0 0 0 0m-378 496c-3-3-3-9 0-20 3-11 3-17 2-20-1-3 0-9 5-19 5-10 7-16 6-18-1-2 2-8 8-18 6-10 10-16 11-19 1-3 6-9 13-19 7-10 12-16 14-19 2-3 7-10 15-21 8-11 13-19 16-23 59-81 96-152 112-212 0 0 82 0 82 0 16 63 53 133 112 212 3 4 11 16 25 35 14 19 22 31 25 36 3 5 8 14 17 29 9 15 14 26 16 33 2 7 4 17 6 28 2 11 2 23 1 35-11 131-92 196-244 196-151 0-231-65-242-196 0 0 0 0 0 0" horiz-adv-x="700" />

<glyph glyph-name="language" unicode="&#xe885;" d="M988 306c20-55 17-113-10-176-27-63-71-116-134-160-7 0-11 1-12 2-1 1-7 8-16 19-9 11-15 18-16 19-1 4-1 7 2 10 57 40 96 91 117 152 21 61 17 111-11 148-11-25-24-51-39-76-15-25-35-52-59-80-24-28-53-50-86-65-33-15-69-20-106-15-35 4-63 18-84 41-21 23-32 54-32 93 0 56 20 105 60 148 33 33 71 55 114 66 0 0-2 100-2 100-93-16-142-24-146-24-4-1-7 0-10 4 0 1-2 11-5 29-3 18-5 28-5 31-1 1-1 3 1 4 2 1 4 2 7 2 0 0 156 28 156 28 0 73-1 111-2 114 0 5 3 8 8 8 31 0 48 1 52 2 7 0 10-3 10-8 0 0 0-104 0-104 105 15 160 22 164 22 5 3 9 1 10-6 0-1 1-9 4-23 3-14 4-22 4-25 3-7 1-11-4-12 0 0-176-30-176-30 0 0 0-102 0-102 0 0 12 0 12 0 57 0 107-12 148-36 41-24 70-57 86-100 0 0 0 0 0 0m-370-160c19-4 39-2 62 6 0 0-4 214-4 214-23-8-43-21-60-40-29-29-44-65-44-108 0-44 15-68 46-72 0 0 0 0 0 0m122 28c19 16 38 39 58 68 20 29 35 56 45 79 10 23 12 37 7 41-24 12-56 18-96 18-1 0-3 0-6-1-3-1-5-1-6-1 0 0-2-204-2-204m-448 382c7-19 24-74 53-165 29-91 56-178 83-261 27-83 40-125 40-126 0-3-1-4-4-4 0 0-86 0-86 0-4 0-6 1-6 4 0 0-50 166-50 166 0 0-176 0-176 0-32-109-49-165-50-166 0-3-2-4-6-4 0 0-86 0-86 0-3 0-4 1-4 4 7 12 65 196 176 552 1 5 5 8 10 8 0 0 96 0 96 0 7 0 10-3 10-8 0 0 0 0 0 0m-130-316c0 0 144 0 144 0 0 0-72 264-72 264 0 0-72-264-72-264" horiz-adv-x="1001" />

<glyph glyph-name="lastfm-circled" unicode="&#xe886;" d="M480 830c132 0 245-47 339-140 94-93 141-207 141-340 0-132-47-245-141-339-94-94-207-141-339-141-133 0-247 47-340 141-93 94-140 207-140 339 0 133 47 247 140 340 93 93 207 140 340 140 0 0 0 0 0 0m132-620c80 0 120 27 120 80 0 44-25 72-76 84 0 0-38 8-38 8-21 5-32 17-32 34 0 20 13 30 40 30 29 0 45-11 46-34 0 0 58 6 58 6-4 49-37 74-100 74-68 0-102-28-102-84 0-40 22-65 66-76 0 0 40-8 40-8 27-7 40-19 40-36 0-21-21-32-62-32-51 0-84 25-100 74 0 0-20 58-20 58-12 39-27 66-45 81-18 15-46 23-85 23-36 0-68-13-95-40-27-27-41-62-41-106 0-41 13-74 39-99 26-25 57-37 93-37 36 0 65 9 86 26 0 0-18 50-18 50-19-19-41-28-66-28-21 0-40 8-55 25-15 17-23 38-23 65 0 33 8 58 25 73 17 15 36 23 57 23 23 0 39-6 49-18 10-12 19-31 27-56 0 0 18-58 18-58 21-68 73-102 154-102 0 0 0 0 0 0" horiz-adv-x="960" />

<glyph glyph-name="lastfm" unicode="&#xe887;" d="M394 222c0 0 34-100 34-100-43-35-99-52-168-52-71 0-132 24-183 73-51 49-77 115-77 199 0 87 27 156 80 209 53 53 116 79 188 79 75 0 130-15 167-45 37-30 67-83 91-159 0 0 36-116 36-116 32-97 99-146 202-146 80 0 120 20 120 60 0 36-26 60-78 72 0 0-78 18-78 18-89 23-134 73-134 152 0 59 19 101 58 126 39 25 87 38 146 38 123 0 189-49 198-146 0 0-114-14-114-14-5 47-35 70-90 70-55 0-82-21-82-62 0-33 22-55 66-66 0 0 74-16 74-16 100-24 150-79 150-166 0-107-79-160-238-160-91 0-159 18-204 53-45 35-79 85-100 149 0 0-36 116-36 116-9 27-17 47-22 60-5 13-14 28-25 43-11 15-25 26-42 33-17 7-37 10-61 10-43 0-80-15-113-46-33-31-49-78-49-142 0-53 15-97 46-130 31-33 67-50 110-50 40 0 83 19 128 56 0 0 0 0 0 0" horiz-adv-x="1000" />

<glyph glyph-name="layout" unicode="&#xe888;" d="M170 650c53 0 80-27 80-80 0 0 0-90 0-90 0-53-27-80-80-80 0 0-90 0-90 0-53 0-80 27-80 80 0 0 0 90 0 90 0 53 27 80 80 80 0 0 90 0 90 0 0 0 0 0 0 0m350 0c53 0 80-27 80-80 0 0 0-90 0-90 0-53-27-80-80-80 0 0-90 0-90 0-53 0-80 27-80 80 0 0 0 90 0 90 0 53 27 80 80 80 0 0 90 0 90 0 0 0 0 0 0 0m-350-350c53 0 80-27 80-80 0 0 0-90 0-90 0-53-27-80-80-80 0 0-90 0-90 0-53 0-80 27-80 80 0 0 0 90 0 90 0 53 27 80 80 80 0 0 90 0 90 0 0 0 0 0 0 0m350 0c53 0 80-27 80-80 0 0 0-90 0-90 0-53-27-80-80-80 0 0-90 0-90 0-53 0-80 27-80 80 0 0 0 90 0 90 0 53 27 80 80 80 0 0 90 0 90 0 0 0 0 0 0 0" horiz-adv-x="600" />

<glyph glyph-name="leaf" unicode="&#xe889;" d="M236 646c122 71 290 93 506 66 112-15 178-31 196-50 3-4 2-7-2-10-50-27-94-63-130-109-36-46-62-90-78-132-16-42-37-86-65-132-27-46-58-81-93-105-92-64-219-65-382-4-44-51-82-109-114-176-8-16-23-18-47-7-23 11-32 24-25 39 30 67 73 131 129 193 57 62 116 113 176 153 61 40 120 75 176 106 57 31 104 53 141 68 0 0 54 20 54 20-9 0-23 0-41-1-18-1-52-5-104-14-51-9-100-21-148-38-47-17-101-45-162-84-60-39-114-86-161-141-14 161 44 281 174 358 0 0 0 0 0 0" horiz-adv-x="940" />

<glyph glyph-name="left-bold" unicode="&#xe88a;" d="M378 730c0 0 0-190 0-190 0 0 352 0 352 0 0 0 0-378 0-378 0 0-352 0-352 0 0 0 0-192 0-192 0 0-378 380-378 380 0 0 378 380 378 380" horiz-adv-x="730" />

<glyph glyph-name="left-circled" unicode="&#xe88b;" d="M920 350c0-127-45-235-135-325-90-90-198-135-325-135-127 0-235 45-325 135-90 90-135 198-135 325 0 128 45 237 135 326 90 89 198 134 325 134 127 0 235-45 325-134 90-89 135-198 135-326 0 0 0 0 0 0m-820 0c0-99 35-183 106-254 71-71 155-106 254-106 99 0 183 35 254 106 71 71 106 155 106 254 0 100-35 185-106 255-71 70-155 105-254 105-99 0-183-35-254-105-71-70-106-155-106-255 0 0 0 0 0 0m552-90c0 0-204 0-204 0 0 0 0-112 0-112 0 0-190 202-190 202 0 0 190 204 190 204 0 0 0-114 0-114 0 0 204 0 204 0 0 0 0-180 0-180 0 0 0 0 0 0" horiz-adv-x="920" />

<glyph glyph-name="left-dir" unicode="&#xe88c;" d="M400 580c0 0 0-460 0-460 0 0-400 230-400 230 0 0 400 230 400 230" horiz-adv-x="400" />

<glyph glyph-name="left-open-big" unicode="&#xe88d;" d="M452-20c17-17 17-33 0-48-17-17-33-17-48 0 0 0-392 394-392 394-16 16-16 33 0 50 0 0 392 394 392 394 15 17 31 17 48 0 17-15 17-31 0-48 0 0-358-372-358-372 0 0 358-370 358-370" horiz-adv-x="465" />

<glyph glyph-name="left-open-mini" unicode="&#xe88e;" d="M252 180c17-17 17-33 0-48-17-17-33-17-48 0 0 0-192 194-192 194-16 16-16 33 0 50 0 0 192 194 192 194 15 17 31 17 48 0 17-15 17-31 0-48 0 0-156-172-156-172 0 0 156-170 156-170" horiz-adv-x="265" />

<glyph glyph-name="left-open" unicode="&#xe88f;" d="M242 626c9 11 22 16 39 16 17 0 30-5 41-16 25-24 25-51 0-80 0 0-186-196-186-196 0 0 186-194 186-194 25-29 25-56 0-80-11-11-24-16-40-16-16 0-29 5-40 16 0 0-226 236-226 236-11 11-16 23-16 38 0 16 5 29 16 40 137 143 213 221 226 236 0 0 0 0 0 0" horiz-adv-x="341" />

<glyph glyph-name="left-thin" unicode="&#xe890;" d="M240 100c0 0-240 250-240 250 0 0 240 250 240 250 0 0 0-160 0-160 0 0 740 0 740 0 0 0 0-178 0-178 0 0-740 0-740 0 0 0 0-162 0-162 0 0 0 0 0 0" horiz-adv-x="980" />

<glyph glyph-name="left" unicode="&#xe891;" d="M378 20c0 0-378 330-378 330 0 0 378 330 378 330 0 0 0-190 0-190 0 0 352 0 352 0 0 0 0-278 0-278 0 0-352 0-352 0 0 0 0-192 0-192 0 0 0 0 0 0" horiz-adv-x="730" />

<glyph glyph-name="level-down" unicode="&#xe892;" d="M100 200c-28 0-52 10-71 30-19 20-29 43-29 70 0 0 0 350 0 350 0 0 140 0 140 0 0 0 0-310 0-310 0 0 364 0 364 0 0 0 0 150 0 150 0 0 240-220 240-220 0 0-240-220-240-220 0 0 0 150 0 150 0 0-404 0-404 0 0 0 0 0 0 0" horiz-adv-x="744" />

<glyph glyph-name="level-up" unicode="&#xe893;" d="M200 350c0 0 0-90 0-90 0 0-200 160-200 160 0 0 200 170 200 170 0 0 0-100 0-100 0 0 550 0 550 0 27 0 50-10 70-29 20-19 30-43 30-71 0 0 0-280 0-280 0 0-140 0-140 0 0 0 0 240 0 240 0 0-510 0-510 0 0 0 0 0 0 0" horiz-adv-x="850" />

<glyph glyph-name="lifebuoy" unicode="&#xe894;" d="M454 810c127 1 235-42 326-130 91-88 137-195 140-322 1-127-42-236-131-327-89-91-196-138-323-141-127-1-236 42-327 131-91 89-138 196-139 323-3 127 41 236 130 327 89 91 197 138 324 139 0 0 0 0 0 0m0-60c-63 0-122-15-178-44 0 0 62-104 62-104 37 19 78 28 122 28 44 0 85-9 122-28 0 0 62 104 62 104-59 31-122 45-190 44 0 0 0 0 0 0m-246-522c-19 40-28 81-28 122 0 43 9 84 28 124 0 0-102 62-102 62-31-59-46-122-46-190 1-64 17-124 46-180 0 0 102 62 102 62m258-278c65 3 125 18 178 46 0 0-62 104-62 104-40-20-81-30-122-30-41 0-82 10-122 30 0 0-62-104-62-104 57-31 121-46 190-46 0 0 0 0 0 0m-6 180c61 0 113 22 156 65 43 43 64 95 64 155 0 61-21 113-64 156-43 43-95 64-156 64-61 0-113-21-156-64-43-43-64-95-64-156 0-60 21-112 64-155 43-43 95-65 156-65 0 0 0 0 0 0m252 98c0 0 104-62 104-62 31 64 45 127 44 190 0 64-15 124-44 180 0 0-104-62-104-62 19-40 28-81 28-124 0-41-9-82-28-122 0 0 0 0 0 0" horiz-adv-x="920" />

<glyph glyph-name="light-down" unicode="&#xe895;" d="M350 510c45 0 83-16 114-47 31-31 46-69 46-113 0-45-15-83-46-114-31-31-69-46-114-46-44 0-82 15-113 46-31 31-47 69-47 114 0 44 16 82 47 113 31 31 69 47 113 47 0 0 0 0 0 0m0-264c29 0 54 10 73 30 19 20 29 45 29 74 0 28-10 52-29 72-19 20-44 30-73 30-28 0-52-10-72-30-20-20-30-44-30-72 0-29 10-54 30-74 20-20 44-30 72-30 0 0 0 0 0 0m-300 144c13 0 25-4 35-12 10-8 15-17 15-28 0-27-17-40-50-40-33 0-50 13-50 40 0 11 5 20 15 28 10 8 22 12 35 12 0 0 0 0 0 0m546 204c19-19 16-40-8-64-9-9-20-15-33-16-13-1-22 2-29 10-8 8-11 18-10 31 1 13 7 24 16 33 24 23 45 25 64 6 0 0 0 0 0 0m54-204c13 0 25-4 35-12 10-8 15-17 15-28 0-27-17-40-50-40-32 0-48 13-48 40 0 11 5 20 14 28 9 8 21 12 34 12 0 0 0 0 0 0m-300-290c11 0 20-5 28-15 8-10 12-22 12-35 0-13-4-25-12-35-8-10-17-15-28-15-11 0-20 5-28 15-8 10-12 22-12 35 0 13 4 25 12 35 8 10 17 15 28 15 0 0 0 0 0 0m-238 62c24 24 45 27 64 8 19-19 16-40-8-64-9-9-20-15-33-16-13-1-22 1-29 8-20 19-18 40 6 64 0 0 0 0 0 0m-10 430c19 19 40 16 64-8 9-9 15-20 16-33 1-13-1-22-8-29-20-19-41-17-64 6-24 24-27 45-8 64 0 0 0 0 0 0m432-484c-23 24-25 45-6 64 19 19 40 16 64-8 9-9 15-20 16-33 1-13-2-22-10-29-20-19-41-17-64 6 0 0 0 0 0 0m-184 492c-11 0-20 5-28 15-8 10-12 22-12 35 0 13 4 25 12 35 8 10 17 15 28 15 11 0 20-5 28-15 8-10 12-22 12-35 0-13-4-25-12-35-8-10-17-15-28-15 0 0 0 0 0 0" horiz-adv-x="700" />

<glyph glyph-name="light-up" unicode="&#xe896;" d="M950 390c13 0 25-4 35-12 10-8 15-17 15-28 0-27-17-40-50-40 0 0-48 0-48 0-33 0-50 13-50 40 0 11 5 20 15 28 10 8 22 12 35 12 0 0 48 0 48 0 0 0 0 0 0 0m-450 234c76 0 141-27 195-80 54-53 81-118 81-194 0-77-27-143-81-196-54-53-119-80-195-80-76 0-141 27-194 80-53 53-80 119-80 196 0 76 27 141 80 194 53 53 118 80 194 80 0 0 0 0 0 0m0-474c55 0 102 19 141 58 39 39 59 86 59 142 0 55-20 102-59 141-39 39-86 59-141 59-55 0-102-20-141-59-39-39-59-86-59-141 0-56 20-103 59-142 39-39 86-58 141-58 0 0 0 0 0 0m-350 200c0-27-17-40-50-40 0 0-50 0-50 0-33 0-50 13-50 40 0 11 5 20 15 28 10 8 22 12 35 12 0 0 50 0 50 0 13 0 25-4 35-12 10-8 15-17 15-28 0 0 0 0 0 0m350 350c-11 0-20 5-28 15-8 10-12 22-12 35 0 0 0 50 0 50 0 13 4 25 12 35 8 10 17 15 28 15 11 0 20-5 28-15 8-10 12-22 12-35 0 0 0-50 0-50 0-13-4-25-12-35-8-10-17-15-28-15 0 0 0 0 0 0m0-700c11 0 20-5 28-15 8-10 12-22 12-35 0 0 0-50 0-50 0-13-4-25-12-35-8-10-17-15-28-15-11 0-20 5-28 15-8 10-12 22-12 35 0 0 0 50 0 50 0 13 4 25 12 35 8 10 17 15 28 15 0 0 0 0 0 0m368 660c0 0-34-34-34-34-23-23-44-25-64-8-19 19-16 40 8 64 3 4 14 16 34 36 24 23 45 25 64 6 19-19 16-40-8-64 0 0 0 0 0 0m-700-588c9 11 20 17 33 18 13 1 22-2 29-10 8-8 11-18 10-31-1-13-7-24-16-33 0 0-36-36-36-36-9-9-20-15-33-16-13-1-22 2-29 10-20 19-18 40 6 64 4 3 16 14 36 34 0 0 0 0 0 0m20 646c0 0 36-36 36-36 24-24 26-45 6-64-7-7-16-9-29-8-13 1-24 7-33 16-20 20-32 31-36 34-9 9-15 20-16 33-1 13 2 23 10 31 7 8 16 11 29 10 13-1 24-7 33-16 0 0 0 0 0 0m590-702c-24 24-27 45-8 64 19 19 40 16 64-8 0 0 34-34 34-34 24-24 27-45 8-64-19-19-40-17-64 6-20 20-31 32-34 36 0 0 0 0 0 0" horiz-adv-x="1000" />

</font>
</defs>
</svg>
